<?xml version="1.0" standalone="no"?>
<!DOCTYPE svg PUBLIC "-//W3C//DTD SVG 1.1//EN" "http://www.w3.org/Graphics/SVG/1.1/DTD/svg11.dtd">
<svg xmlns="http://www.w3.org/2000/svg">
<metadata>This SVG font generated by Fontastic.me</metadata>
<defs>
<font id="ddsmedia-icon" horiz-adv-x="512">
  <font-face font-family="ddsmedia-icon" font-weight="500" font-stretch="normal" units-per-em="512" panose-1="2 0 6 3 0 0 0 0 0 0" ascent="480" descent="-32" x-height="401" cap-height="476" bbox="-43 -74 576 544" underline-thickness="50" underline-position="-100" unicode-range="U+0021-E19E"/>
    <missing-glyph/>
    <glyph glyph-name="a" unicode="a" horiz-adv-x="512" d="M12 480h488l-224 -274v-177l149 -50v-10h-341v10l149 50v178zM83 438l150 -192l-86 192h-64z"/>
    <glyph glyph-name="b" unicode="b" horiz-adv-x="512" d="M0 -36v30l81 82c-1 15 -7 42 -9 60c-1 12 -2 24 -2 36c0 56 18 108 54 154c28 36 60 61 104 80c64 27 137 40 211 59c25 7 50 13 73 20c0 -167 -31 -305 -121 -381c-43 -37 -96 -59 -174 -59c-31 0 -72 5 -98 9c-13 2 -22 4 -26 4zM114 106c0 -1 1 -2 2 -2 c4 0 12 11 14 14c28 38 102 81 149 106v1c42 22 42 21 79 46c34 23 45 37 70 70c12 16 22 33 31 51l2 6c2 4 7 16 7 21c0 1 0 1 -1 1c-2 0 -8 -7 -18 -22c-17 -25 -40 -47 -69 -66c-18 -12 -84 -46 -112 -63c-45 -27 -90 -60 -122 -100c-11 -14 -20 -29 -26 -44 c-4 -9 -6 -15 -6 -19z"/>
    <glyph glyph-name="c" unicode="c" horiz-adv-x="512" d="M21 -32c-12 0 -21 10 -21 22v222c0 7 3 16 6 20l41 56c1 2 2 4 2 7c0 4 -1 7 -4 9l-41 53c-3 2 -4 6 -4 9c0 5 4 9 9 9c2 0 4 0 8 -2c23 -17 39 -29 48 -34c6 -4 17 -8 25 -8h162c12 0 21 4 26 11c2 2 5 3 8 3s5 -1 7 -3l82 -88c4 -3 9 -12 9 -18v-246 c0 -12 -9 -22 -21 -22h-22c-12 0 -21 10 -21 22v141c0 6 -4 11 -9 12l-183 39c-7 1 -15 -3 -19 -6l-45 -79v-107c0 -12 -9 -22 -21 -22h-22zM313 372c0 3 2 6 4 8l111 111c5 6 10 9 14 9s6 -3 6 -9v-32c0 -8 1 -13 4 -16l100 -97c2 -2 2 -4 2 -6c0 -3 -1 -5 -4 -7l-68 -45 c-2 -2 -5 -2 -8 -2s-6 1 -9 3l-14 12c-2 2 -4 2 -7 2s-7 -1 -9 -3l-22 -23c-2 -2 -5 -3 -8 -3s-6 1 -8 3l-80 88c-2 2 -4 4 -4 7z"/>
    <glyph glyph-name="d" unicode="d" horiz-adv-x="512" d="M171 363c0 59 36 96 96 96c41 0 71 -20 85 -48c7 -14 11 -30 11 -48v-64c0 -21 -8 -36 -22 -47v-81c26 -11 77 -37 150 -79c16 -9 21 -17 21 -41v-51c0 -6 -5 -10 -11 -10h-469c-6 0 -11 4 -11 10v51c0 24 6 32 22 41c68 40 118 66 149 79v81c-14 11 -21 26 -21 47v64z "/>
    <glyph glyph-name="e" unicode="e" horiz-adv-x="512" d="M53 -10c-6 0 -10 4 -10 10v11c-1 8 2 20 5 27c5 11 17 23 28 30c3 2 11 7 25 17c25 18 64 43 91 57v43l-53 20l-44 -67l-49 49l74 25l29 55v85c0 43 22 75 51 92c16 10 35 15 56 15c41 0 73 -26 89 -54c10 -16 16 -34 18 -53v-85l29 -55l74 -25l-49 -49l-44 67l-53 -20 v-43c27 -14 66 -39 91 -57c14 -10 22 -15 25 -17c19 -12 33 -28 33 -57v-11c0 -6 -4 -10 -10 -10h-406z"/>
    <glyph glyph-name="f" unicode="f" horiz-adv-x="512" d="M13 263c-5 0 -9 5 -9 10v19c0 5 4 10 9 10h38l31 106c5 12 12 18 18 23s14 7 27 7h258c13 0 21 -2 27 -7s13 -11 18 -23l31 -106h38c5 0 9 -5 9 -10v-19c0 -5 -4 -10 -9 -10h-18l8 -19v-224c0 -5 -5 -9 -10 -9h-38c-5 0 -10 4 -10 9v29h-350v-29c0 -5 -5 -9 -10 -9h-38 c-5 0 -10 4 -10 9v224l8 19h-18zM42 186l20 -20h59v39l-79 22v-41zM90 302h332c-14 55 -21 84 -23 89c-3 5 -7 8 -12 8h-262c-5 0 -9 -3 -12 -8c-1 -2 -3 -10 -7 -25s-7 -29 -11 -43zM179 89h154v39h-154v-39zM391 166h59l20 20v41l-79 -22v-39z"/>
    <glyph glyph-name="g" unicode="g" horiz-adv-x="512" d="M7 224c-5 0 -9 4 -9 9v18c0 5 4 10 9 10h64v64c0 5 4 8 9 8h18c5 0 9 -3 9 -8v-64h63c5 0 10 -5 10 -10v-18c0 -5 -5 -9 -10 -9h-63v-63c0 -5 -4 -10 -9 -10h-18c-5 0 -9 5 -9 10v63h-64zM298 425c50 0 82 -33 82 -82v-55c0 -18 -6 -31 -18 -40v-69c22 -9 66 -32 128 -68 c14 -8 17 -15 17 -35v-43c0 -5 -4 -9 -9 -9h-400c-5 0 -9 4 -9 9v43c0 20 4 27 18 35c58 34 101 57 127 68v69c-12 9 -17 22 -17 40v55c0 50 30 82 81 82z"/>
    <glyph glyph-name="h" unicode="h" horiz-adv-x="512" d="M11 224c-5 0 -10 5 -10 10v19c0 5 5 10 10 10h136c5 0 10 -5 10 -10v-19c0 -5 -5 -10 -10 -10h-136zM196 350c0 53 33 88 87 88c37 0 64 -19 77 -44c6 -13 10 -28 10 -44v-58c0 -19 -7 -34 -20 -43v-73c24 -10 71 -34 137 -72c15 -8 19 -15 19 -37v-47c0 -5 -5 -9 -10 -9 h-427c-5 0 -10 4 -10 9v47c0 22 5 29 20 37c62 36 108 60 136 72v73c-13 10 -19 24 -19 43v58z"/>
    <glyph glyph-name="i" unicode="i" horiz-adv-x="512" d="M43 -53c-12 0 -22 9 -22 21v512c0 12 10 22 22 22h426c12 0 22 -10 22 -22v-512c0 -12 -10 -21 -22 -21h-426zM43 -10h64v42h-64v-42zM43 75h64v43h-64v-43zM43 160h64v43h-64v-43zM43 246h64v42h-64v-42zM43 331h64v43h-64v-43zM43 416h64v43h-64v-43zM128 -10h256v213 h-256v-213zM128 246h256v213h-256v-213zM405 -10h64v42h-64v-42zM405 75h64v43h-64v-43zM405 160h64v43h-64v-43zM405 246h64v42h-64v-42zM405 331h64v43h-64v-43zM405 416h64v43h-64v-43z"/>
    <glyph glyph-name="j" unicode="j" horiz-adv-x="512" d="M1 339l105 33l32 107l32 -107l105 -32l-105 -32l-31 -106l-33 106zM3 11c0 3 1 5 3 7l336 335l45 -45l-336 -335c-2 -2 -4 -3 -7 -3s-6 1 -8 3l-30 30c-2 2 -3 5 -3 8zM236 83l74 22l21 73l22 -73l73 -22l-73 -21l-22 -74l-21 74zM364 214l57 16l17 57l17 -57l56 -16 l-56 -17l-17 -57l-17 57zM375 387l86 86c2 2 5 3 8 3s5 -1 7 -3l31 -30c2 -2 3 -5 3 -8s-1 -5 -3 -7l-86 -86z"/>
    <glyph glyph-name="k" unicode="k" horiz-adv-x="512" d="M0 54l149 149l107 -107l107 107l149 -149h-512zM0 96v256l128 -128zM0 395h512l-256 -256zM384 224l128 128v-256z"/>
    <glyph glyph-name="l" unicode="l" horiz-adv-x="512" d="M51 11c-39 0 -72 34 -72 73v217c0 39 33 73 72 73h73s1 1 1 2l6 17c9 22 38 45 67 45h116c29 0 58 -23 67 -45l6 -17c0 -1 1 -2 1 -2h73c39 0 72 -34 72 -73v-217c0 -39 -33 -73 -72 -73h-410zM144 182c0 -45 26 -79 56 -97c17 -10 36 -15 56 -15c34 0 61 14 79 32 s33 47 33 80s-15 61 -33 79s-45 33 -79 33c-45 0 -79 -26 -97 -56c-10 -17 -15 -36 -15 -56zM256 123c-32 0 -59 27 -59 59s27 58 59 58s59 -26 59 -58s-27 -59 -59 -59zM427 288h42v22h-42v-22z"/>
    <glyph glyph-name="m" unicode="m" horiz-adv-x="512" d="M0 313c0 51 27 88 57 111c29 22 72 39 119 25c32 -9 57 -34 75 -61c19 27 46 52 78 61c48 14 90 -4 118 -25c22 -17 38 -39 48 -68c5 -14 8 -28 8 -43c0 -32 -16 -57 -32 -78c-35 -46 -81 -88 -123 -129c-31 -31 -70 -75 -97 -111c-42 57 -94 109 -143 157 c-29 28 -54 53 -77 83c-16 21 -31 46 -31 78z"/>
    <glyph glyph-name="n" unicode="n" horiz-adv-x="512" d="M0 320c30 68 88 121 161 143c65 20 135 13 190 -13l11 20c5 9 18 14 30 7c9 -5 15 -17 8 -29l-12 -20c50 -35 92 -91 107 -157c19 -81 -5 -160 -43 -210c3 44 -21 78 -50 95c-25 14 -59 18 -88 6c-3 40 -26 71 -54 88c-30 17 -69 19 -101 3c-8 48 -50 88 -106 85 c-19 -1 -37 -7 -53 -18zM75 -28l143 247c16 -3 29 -11 38 -21l-130 -226h-51zM87 376l7 -3c31 -10 54 -19 71 -42c5 -7 11 -16 17 -27l3 -6l4 6c26 41 58 77 104 95c10 4 24 8 36 8l2 9c-29 13 -60 19 -92 19c-61 0 -111 -24 -146 -55zM347 209h11c20 0 35 -3 48 -9 s28 -16 45 -32l5 -5l2 7c19 100 -31 181 -89 223l-6 -5c5 -7 6 -16 9 -31c10 -53 -8 -103 -29 -142l-3 -7z"/>
    <glyph glyph-name="o" unicode="o" horiz-adv-x="512" d="M62 -28l104 117h-26c-27 0 -43 15 -55 30c-10 14 -18 30 -23 47v78l33 195c3 20 22 38 45 38h232c23 0 42 -18 45 -38l33 -195v-78c-6 -24 -21 -47 -37 -62c-9 -8 -25 -15 -41 -15h-28l106 -117h-78l-63 117h-108l-61 -117h-78zM101 166l78 -19v39l-78 38v-58zM101 263 c30 -16 68 -32 109 -40c16 -4 31 -4 46 -4c47 0 90 15 123 29c10 5 18 8 23 11l9 4l-29 169c-1 2 -3 6 -6 6h-239c-2 0 -6 -4 -6 -6zM333 147l78 19v58l-78 -38v-39z"/>
    <glyph glyph-name="p" unicode="p" horiz-adv-x="512" d="M11 11c-6 0 -11 5 -11 11v298c0 6 5 11 11 11h63c6 0 11 -5 11 -11v-64c0 -6 4 -10 10 -10h321c6 0 11 4 11 10v64c0 6 4 11 10 11h64c6 0 11 -5 11 -11v-298c0 -6 -5 -11 -11 -11h-79c-6 0 -12 6 -13 11l-8 43c-1 5 -7 10 -13 10h-264c-6 0 -12 -5 -13 -10l-8 -43 c-1 -5 -7 -11 -13 -11h-79zM43 309c-12 0 -22 -9 -22 -21s10 -21 22 -21s21 9 21 21s-9 21 -21 21zM108 279l40 191c1 6 6 10 12 10h192c6 0 11 -4 12 -10l40 -191c1 -6 -3 -11 -9 -11h-278c-6 0 -10 5 -9 11zM120 -21l16 64c1 5 7 11 13 11h214c6 0 12 -6 13 -11l16 -64 c1 -6 -2 -11 -8 -11h-256c-6 0 -9 5 -8 11z"/>
    <glyph glyph-name="q" unicode="q" horiz-adv-x="512" d="M334 478c21 0 38 -18 38 -39v-39h107c5 0 10 -4 10 -9v-20c0 -6 -4 -9 -10 -9h-407c-6 0 -10 3 -10 9v20c0 5 5 9 10 9h106v39c0 21 18 39 39 39h117zM334 400v39h-117v-39h117zM140 -27c-21 0 -39 19 -39 40v310h349v-310c0 -21 -18 -40 -39 -40h-271zM140 13h38v271 h-38v-271zM217 13h39v271h-39v-271zM295 13h39v271h-39v-271zM372 13h39v271h-39v-271z"/>
    <glyph glyph-name="r" unicode="r" horiz-adv-x="512" d="M64 -29c-35 12 -53 46 -26 82c12 17 30 29 52 36c23 7 42 9 59 5v294c0 6 6 11 11 13l299 79c6 1 10 -2 10 -8v-376c-2 -29 -38 -52 -65 -61c-65 -20 -129 23 -88 82c12 17 30 29 52 36s42 9 59 5v209l-235 -63v-272c-1 -11 -7 -22 -19 -34c-21 -20 -67 -42 -109 -27z "/>
    <glyph glyph-name="s" unicode="s" horiz-adv-x="512" d="M277 358v-304c-4 -39 -43 -67 -79 -79c-35 -10 -70 -10 -96 6c-21 13 -36 37 -23 69c12 29 43 51 75 62c19 6 39 7 60 4v351c0 7 6 13 13 13h37c7 0 13 -6 13 -13v-11c26 -13 58 -23 84 -36c21 -11 35 -21 49 -38c12 -15 20 -40 16 -64c-6 -34 -23 -58 -45 -75 c-3 -2 -21 -14 -23 -10c-1 2 4 7 5 9c9 13 18 34 16 58c-2 19 -10 31 -26 38c-17 8 -33 9 -54 13c-10 2 -18 4 -22 7z"/>
    <glyph glyph-name="t" unicode="t" horiz-adv-x="512" d="M5 313c0 51 27 88 57 111c29 22 72 39 119 25c32 -9 57 -34 75 -61c19 27 45 52 77 61c48 14 91 -4 119 -25c22 -17 38 -39 48 -68c5 -14 7 -28 7 -43c0 -32 -15 -57 -31 -78c-35 -46 -81 -88 -123 -129c-31 -31 -70 -75 -97 -111c-42 57 -94 109 -143 157 c-29 28 -54 53 -77 83c-16 21 -31 46 -31 78zM58 313c0 -16 12 -34 19 -45c10 -14 38 -43 50 -55l32 -32c41 -40 73 -73 97 -100c21 24 53 58 97 101c28 28 53 51 78 82c10 12 15 20 20 34c2 5 3 10 3 15c0 41 -26 67 -55 80c-10 4 -21 7 -31 7c-26 0 -49 -14 -68 -42 l-45 -65l-44 66c-18 27 -39 41 -65 41c-24 0 -46 -12 -60 -25c-15 -13 -28 -35 -28 -62z"/>
    <glyph glyph-name="u" unicode="u" horiz-adv-x="512" d="M-21 224l288 287v-1l74 -74v66h86v-151l128 -127h-86v-256h-149v171h-107v-171h-149v256h-85z"/>
    <glyph glyph-name="v" unicode="v" horiz-adv-x="512" d="M-21 203c-12 0 -21 9 -21 21s9 22 21 22h34l-21 20c-14 14 0 40 20 36c4 -1 8 -3 11 -6l50 -50h64l22 45l-40 40h-76c-12 0 -21 9 -21 21s9 22 21 22h34l-32 31c-14 14 0 40 20 36c4 -1 7 -2 10 -5l32 -32v34c0 12 9 21 21 21s21 -9 21 -21v-77l40 -40l46 23v64l-51 50 c-14 14 0 40 20 36c4 -1 8 -3 11 -6l20 -20v34c0 12 9 21 21 21s21 -9 21 -21v-34l20 20c14 14 41 0 37 -20c-1 -4 -3 -7 -6 -10l-51 -50v-64l46 -23l40 40v77c0 12 9 21 21 21s21 -9 21 -21v-34l32 32c10 10 27 6 33 -4c5 -9 4 -20 -3 -27l-32 -31h34c12 0 21 -10 21 -22 s-9 -21 -21 -21h-76l-40 -40l22 -45h64l50 50c14 14 41 0 37 -20c-1 -4 -3 -7 -6 -10l-21 -20h34c12 0 21 -10 21 -22s-9 -21 -21 -21h-34l21 -20c14 -14 0 -40 -20 -36c-4 1 -8 3 -11 6l-50 50h-64l-22 -45l40 -40h76c12 0 21 -10 21 -22s-9 -21 -21 -21h-34l32 -32 c10 -10 6 -26 -4 -32c-9 -5 -19 -5 -26 2l-32 32v-34c0 -12 -9 -21 -21 -21s-21 9 -21 21v77l-41 40l-45 -23v-64l51 -50c14 -14 0 -40 -20 -36c-4 1 -8 3 -11 6l-20 20v-34c0 -12 -9 -21 -21 -21s-21 9 -21 21v34l-20 -20c-14 -14 -41 0 -37 20c1 4 3 7 6 10l51 50v64 l-46 23l-40 -40v-77c0 -12 -9 -21 -21 -21s-21 9 -21 21v34l-32 -32c-10 -10 -27 -6 -33 4c-5 9 -4 19 3 26l32 32h-34c-12 0 -21 9 -21 21s9 22 21 22h76l40 40l-22 45h-64l-50 -50c-12 -12 -32 -4 -36 9c-2 7 0 14 5 21l21 20h-34zM174 224l27 -54l55 -28l55 28l27 54 l-27 55l-55 28l-55 -28z"/>
    <glyph glyph-name="w" unicode="w" horiz-adv-x="512" d="M56 92c-5 31 -5 71 4 98c14 42 41 73 77 94c-8 -24 -19 -45 -21 -74c-1 -12 2 -19 7 -26c5 -8 15 -10 27 -11c47 -2 44 39 35 92c-2 14 -11 58 -13 71c-10 66 22 112 54 145l12 12l5 3c-5 -48 15 -104 32 -138c11 -22 22 -41 36 -57s26 -26 37 -28c39 -8 5 75 -13 113 c66 -31 113 -82 131 -158c15 -65 3 -140 -21 -184c-25 -45 -66 -70 -128 -77c-32 -3 -21 20 -10 41c8 20 17 38 20 63c2 16 -2 34 -10 55s-19 40 -33 57c1 -21 -2 -41 -6 -61c-11 -54 -33 -104 -69 -133c-16 -12 -39 -21 -67 -15c-48 18 -77 58 -86 118z"/>
    <glyph glyph-name="x" unicode="x" horiz-adv-x="512" d="M21 203v107h128v-107c0 -46 21 -81 53 -97c12 -6 26 -10 42 -10h3c40 0 65 22 80 48c9 17 14 35 14 59v107h128v-107c0 -71 -28 -130 -64 -168c-35 -37 -90 -67 -158 -67h-3c-86 0 -143 42 -180 94c-25 35 -43 84 -43 141zM128 459c12 0 21 -9 21 -21v-86h-128v86 c0 12 10 21 22 21h85zM448 459c12 0 21 -9 21 -21v-86h-128v86c0 12 10 21 22 21h85z"/>
    <glyph glyph-name="y" unicode="y" horiz-adv-x="512" d="M185 401c44 0 72 -29 72 -73v-48c0 -16 -6 -27 -17 -35v-61c20 -8 58 -27 113 -59c12 -7 16 -13 16 -31v-38c0 -5 -4 -8 -9 -8h-352c-5 0 -8 3 -8 8v38c0 18 4 24 16 31c51 30 89 48 112 59v61c-11 8 -16 19 -16 35v48c0 44 28 73 73 73zM316 289c0 36 26 63 63 63 c26 0 47 -16 56 -33c5 -10 7 -19 7 -30c0 -32 2 -43 16 -60c6 -7 15 -14 20 -21c4 -5 6 -11 1 -16c-13 -14 -36 -25 -62 -27v-33c22 -9 62 -27 79 -37c8 -5 17 -11 17 -23v-16c0 -5 -3 -8 -8 -8h-121v53c0 26 -8 35 -27 46l-21 12v6c-9 1 -17 2 -25 5c-10 5 -18 10 -23 12 c-4 3 -8 6 -12 10c-8 8 4 17 9 22c22 19 31 34 31 75z"/>
    <glyph glyph-name="z" unicode="z" horiz-adv-x="512" d="M0 -32v22h192v-22h-192zM0 11v64l43 149l64 192h21v64l85 -21v-43h22v22h42v-22h22v43l85 21v-64h21l64 -192l43 -149v-64h-192v64l21 149h-170l21 -149v-64h-192zM192 267h21v107h-21v-107zM299 267h21v107h-21v-107zM320 -32v22h192v-22h-192z"/>
    <glyph glyph-name="A" unicode="A" horiz-adv-x="512" d="M1 6l157 436h76l-7 -109h59l-8 109h76l157 -436h-196l-15 163h-88l-15 -163h-196zM215 206h82l-10 109h-62z"/>
    <glyph glyph-name="B" unicode="B" horiz-adv-x="512" d="M5 273c0 61 28 111 60 143s82 59 143 59s111 -27 143 -59s59 -82 59 -143c0 -40 -10 -76 -32 -110l125 -125c2 -2 4 -5 4 -8s-2 -6 -4 -8l-45 -45c-2 -2 -5 -3 -8 -3s-5 1 -7 3l-126 125c-33 -22 -69 -32 -109 -32c-61 0 -111 27 -143 59s-60 83 -60 144zM70 273 c0 -41 18 -76 40 -98s57 -41 98 -41s76 19 98 41s40 57 40 98s-18 75 -40 97s-57 41 -98 41s-76 -19 -98 -41s-40 -56 -40 -97z"/>
    <glyph glyph-name="C" unicode="C" horiz-adv-x="512" d="M13 210c-4 0 -7 3 -7 7v14c0 4 3 8 7 8h28l23 62c7 15 12 22 32 22h160c20 0 25 -7 32 -22l23 -62h27c4 0 7 -4 7 -8v-14c0 -4 -3 -7 -7 -7h-13l6 -14v-163c0 -4 -3 -6 -7 -6h-28c-4 0 -7 2 -7 6v22h-226v-22c0 -4 -3 -6 -7 -6h-29c-4 0 -6 2 -6 6v163l6 14h-14zM49 139 h42v29l-56 16v-30zM69 224h214c-10 40 -16 63 -17 66c-2 4 -6 5 -9 5h-163c-10 0 -10 -9 -14 -24c-3 -11 -4 -22 -7 -32zM119 83h114v28h-114v-28zM260 139h43l14 15v30l-57 -16v-29zM360 235c0 14 -5 17 -19 17h-13l-21 57h145c-5 21 -9 34 -10 37c-2 4 -5 5 -8 5h-128 c-3 0 -7 -1 -9 -5l-6 -12c-8 5 -15 9 -22 11l7 13c7 15 12 22 32 22h124c21 0 26 -8 33 -22l16 -35h27c4 0 6 -3 6 -7v-14c0 -4 -2 -7 -6 -7h-13l6 -14v-148c0 -4 -4 -8 -8 -8h-28c-4 0 -7 4 -7 8v21h-113v14h71v28h-56v39zM444 224h28l15 15v29l-43 -16v-28z"/>
    <glyph glyph-name="D" unicode="D" horiz-adv-x="512" d="M77 -28c-5 0 -9 5 -9 10v432c0 5 4 9 9 9h48v-56c0 -11 7 -19 18 -19h226c11 0 18 8 18 19v56h48c5 0 9 -4 9 -9v-432c0 -5 -4 -10 -9 -10h-358zM125 28h93v20h-93v-20zM125 66h262v19h-262v-19zM125 104h262v19h-262v-19zM125 141h262v20h-262v-20zM125 217h187v18h-187 v-18zM125 254h262v19h-262v-19zM143 179h244v19h-244v-19zM143 292h244v18h-244v-18zM163 367c-11 0 -20 8 -20 19v37c0 11 9 19 20 19h37v17c0 11 7 20 18 20h76c11 0 18 -9 18 -20v-17h37c11 0 20 -8 20 -19v-37c0 -11 -9 -19 -20 -19h-186z"/>
    <glyph glyph-name="E" unicode="E" horiz-adv-x="512" d="M0 -25l51 131l87 -87l-131 -50c-6 -2 -9 0 -7 6zM77 133l274 274l87 -87l-274 -275zM377 433l44 43c3 3 7 5 11 5s8 -2 11 -5l65 -65c3 -3 4 -7 4 -11s-1 -8 -4 -11l-44 -43z"/>
    <glyph glyph-name="F" unicode="F" horiz-adv-x="512" d="M24 271c-9 0 -16 7 -16 16v61c0 10 24 25 75 43l11 22c4 7 13 13 22 13h280c9 0 18 -6 22 -13l11 -21c18 -7 31 -13 48 -21c10 -5 27 -13 27 -23v-61c0 -9 -6 -16 -15 -16h-15c-9 0 -16 7 -16 16v61c0 4 -6 8 -16 14v-316c0 -4 -4 -8 -8 -8h-30c-4 0 -8 4 -8 8v23h-280 v-23c0 -4 -4 -8 -8 -8h-30c-4 0 -8 4 -8 8v316c-10 -6 -16 -10 -16 -14v-61c0 -9 -5 -16 -14 -16h-16zM85 129l16 -13h47v31l-63 15v-33zM101 356v-150c0 -8 6 -11 13 -13c10 -4 32 -8 47 -10c25 -4 64 -7 95 -7c45 0 89 4 124 12c9 2 14 4 18 5l6 2c4 1 7 7 7 11v150 c0 4 -3 8 -7 8h-296c-4 0 -7 -4 -7 -8zM209 84h109v32h-109v-32zM364 116h47l16 13v33l-63 -15v-31z"/>
    <glyph glyph-name="G" unicode="G" horiz-adv-x="512" d="M80 113c-42 41 -76 102 -76 180c0 77 34 139 76 180l27 -27c-35 -35 -65 -87 -65 -153c0 -65 30 -118 65 -153zM151 184c-25 25 -48 62 -48 109s23 85 48 110l27 -27c-19 -18 -36 -48 -36 -83s16 -64 36 -82zM241 248c-18 5 -34 22 -34 45c0 26 23 49 49 49 s49 -23 49 -49c0 -23 -16 -40 -34 -45l24 -265h-78zM361 403c25 -25 48 -63 48 -110s-23 -84 -48 -109l-27 27c20 18 36 47 36 82s-17 65 -36 83zM432 473c42 -41 76 -102 76 -180s-34 -139 -76 -180l-27 27c35 35 65 87 65 153c0 65 -30 118 -65 153z"/>
    <glyph glyph-name="H" unicode="H" horiz-adv-x="512" d="M107 -32c-35 0 -64 29 -64 64v299c0 35 29 64 64 64h85v85h-11c-6 0 -10 5 -10 11v21c0 6 4 11 10 11h150c6 0 10 -5 10 -11v-21c0 -6 -4 -11 -10 -11h-11v-85h85c35 0 64 -29 64 -64v-299c0 -35 -29 -64 -64 -64h-21c0 -12 -9 -21 -21 -21s-22 9 -22 21h-170 c0 -12 -10 -21 -22 -21s-21 9 -21 21h-21zM107 224c-11 0 -22 -10 -22 -21v-171c0 -11 11 -21 22 -21h298c11 0 22 10 22 21v171c0 11 -11 21 -22 21h-298zM107 352c-11 0 -22 -10 -22 -21v-43c0 -11 11 -21 22 -21h298c11 0 22 10 22 21v43c0 11 -11 21 -22 21h-298z M235 395h42v85h-42v-85z"/>
    <glyph glyph-name="I" unicode="I" horiz-adv-x="512" d="M31 -19c-6 0 -11 3 -11 9v50c0 23 5 32 21 41c66 39 115 63 145 76v51c-14 10 -21 27 -21 47v34c-12 5 -22 9 -30 14s-11 9 -11 11c0 8 4 17 11 17h24l30 137c-1 6 2 9 9 7l50 -15c6 -2 15 -2 21 0l49 16c6 2 10 0 9 -6l30 -139h23c7 0 12 -9 12 -17c0 -2 -4 -6 -12 -11 s-17 -9 -29 -14v-34c0 -20 -7 -36 -21 -46v-52c25 -11 74 -35 145 -76c16 -9 21 -18 21 -41v-50c0 -6 -5 -9 -11 -9h-454z"/>
    <glyph glyph-name="J" unicode="J" horiz-adv-x="512" d="M32 -10c-6 0 -11 4 -11 10v26c0 19 11 29 24 36c4 2 26 11 65 25s66 25 82 33v49c-36 2 -75 23 -93 43c-11 12 5 26 12 33c17 15 36 36 42 59c3 13 5 33 5 58c0 27 12 49 26 65c15 17 41 32 72 32c47 0 77 -29 91 -63c5 -11 7 -22 7 -34c0 -49 3 -69 25 -95 c9 -11 21 -21 30 -31c6 -7 12 -16 4 -24c-18 -20 -57 -41 -93 -43v-49c16 -8 43 -19 82 -33s61 -23 65 -25c16 -9 24 -21 24 -36v-26c0 -6 -5 -10 -11 -10h-448z"/>
    <glyph glyph-name="K" unicode="K" horiz-adv-x="512" d="M75 -32c-6 0 -11 5 -11 11v491c0 6 5 10 11 10h245v-138c0 -6 5 -11 11 -11h138v-352c0 -6 -4 -11 -10 -11h-384zM352 352c-6 0 -11 5 -11 11v117l128 -128h-117z"/>
    <glyph glyph-name="L" unicode="L" horiz-adv-x="512" d="M6 100c0 11 5 21 14 29c-10 10 -15 20 -15 29v38c0 14 8 25 25 37c-5 6 -6 12 -6 19v38c0 14 9 27 26 38c-5 6 -7 13 -7 20v38c0 27 29 47 87 61c44 10 92 11 144 5c55 -6 91 -20 110 -42c10 -12 11 -26 10 -47v-15c0 -5 -2 -10 -6 -15c52 -17 94 -61 111 -113 c32 -95 -22 -176 -86 -209c-25 -13 -51 -19 -79 -19c-21 0 -42 4 -61 11c-73 -18 -170 -13 -231 15c-21 9 -37 23 -37 53c0 5 1 24 1 29zM60 218c-11 -5 -24 -10 -28 -22c3 -12 19 -21 49 -29c24 -8 52 -12 86 -13c-1 13 -1 23 1 36c-46 4 -83 13 -108 28zM49 117 c-9 -3 -15 -10 -17 -18c3 -10 14 -15 23 -20c10 -5 22 -8 34 -10l8 -2c31 -7 72 -6 108 -8c-9 11 -15 20 -20 28c-27 1 -55 5 -84 10s-44 10 -49 16zM215 285c-35 0 -113 17 -136 27c-9 -4 -20 -11 -25 -18l-3 -4c5 -15 28 -22 43 -27c28 -8 56 -12 93 -14c6 11 16 23 28 36 zM70 386c5 -23 41 -28 63 -33c25 -6 53 -9 84 -9c35 0 74 4 108 15c9 3 20 6 26 11c5 4 10 8 12 15c-7 18 -30 24 -50 30c-27 8 -60 13 -96 13c-37 0 -71 -5 -99 -14c-19 -7 -41 -8 -48 -28zM207 215c-14 -36 -12 -77 4 -110c18 -36 57 -68 103 -74c44 -7 82 11 106 31 c25 21 48 57 50 100c1 42 -17 77 -39 99c-22 23 -57 43 -98 43c-65 0 -108 -42 -126 -89z"/>
    <glyph glyph-name="M" unicode="M" horiz-adv-x="512" d="M16 88v34c0 7 3 13 7 16l173 145v140c0 16 5 29 16 41s26 17 45 17s33 -5 43 -17s16 -25 16 -41v-140l173 -145c4 -3 7 -9 7 -16v-34c0 -5 -2 -8 -8 -5l-192 99v-120l52 -42c4 -3 8 -10 8 -17v-15c0 -6 -4 -8 -10 -6l-70 20c-3 1 -10 1 -20 1s-17 0 -20 -1l-70 -20 c-6 -2 -10 0 -10 6v15c0 7 4 14 8 17l52 42v120l-192 -100c-6 -3 -8 1 -8 6z"/>
    <glyph glyph-name="N" unicode="N" horiz-adv-x="512" d="M65 -25c-6 0 -9 5 -9 11v371h400v-371c0 -6 -3 -11 -9 -11h-382zM456 456v-80h-400v80c0 11 9 21 20 21s20 -10 20 -21h20c0 11 9 21 20 21s20 -10 20 -21h20c0 11 9 21 20 21s20 -10 20 -21h20c0 11 9 21 20 21s20 -10 20 -21h20c0 11 9 21 20 21s20 -10 20 -21h20 c0 11 9 21 20 21s20 -10 20 -21h20c0 11 9 21 20 21s20 -10 20 -21zM116 36h100v20h-100v-20zM116 76h280v20h-280v-20zM116 116h280v20h-280v-20zM116 156h280v20h-280v-20zM116 236h200v20h-200v-20zM136 196h260v20h-260v-20zM136 276h260v20h-260v-20z"/>
    <glyph glyph-name="O" unicode="O" horiz-adv-x="512" d="M511 428c0 -26 -23 -49 -49 -49c-4 0 -7 1 -12 2l-17 -25v-16h58v-19h-58v-58h58v-19h-58v-58h58v-20h-58v-58h58v-19h-58v-59h58v-39h-485v486h39v-58h58v58h20v-58h58v58h19v-58h58v58h20v-58h58v58h19v-58h59v58h19v-10c9 6 18 9 29 9c26 0 49 -22 49 -48zM45 53 l31 36h-31v-36zM45 108h48l10 11v47h-58v-58zM45 186h58v58h-58v-58zM45 263h58v58h-58v-58zM45 340h58v59h-58v-59zM64 30h39v46zM123 30h58v59h-58v-59zM130 150c-3 5 -6 11 -7 16v-24zM123 186c5 21 23 38 48 38c3 0 6 0 10 -1v21h-58v-58zM123 263h58v58h-58v-58z M123 340h58v59h-58v-59zM132 108h49v20c-4 -1 -7 -1 -10 -1c-6 0 -13 1 -19 4zM200 30h58v59h-58v-59zM200 108h58v58h-39c-3 -13 -9 -22 -19 -29v-29zM200 214c3 -2 5 -3 7 -6l83 36h-12v-5l-20 -10v15h-58v-30zM200 263h58v58h-58v-58zM200 340h58v59h-58v-59zM231 186h27 v12zM278 30h58v59h-58v-59zM278 108h58v58h-58v-58zM336 186v20c-10 2 -19 6 -26 14l-32 -13v-21h58zM298 263c5 19 19 33 38 37v21h-58v-58h20zM278 340h58v59h-58v-59zM346 301zM355 30h59v59h-59v-59zM355 108h59v58h-59v-58zM355 206v-20h59v58h-20 c-4 -19 -20 -34 -39 -38zM355 300c1 0 5 -1 6 -1l14 22h-20v-21zM355 340h33l26 39v20h-59v-59zM384 282c5 -5 8 -13 9 -19h21v58h-4z"/>
    <glyph glyph-name="P" unicode="P" horiz-adv-x="512" d="M479 309v-273h37v-37h-507v37h38v85c0 5 5 10 10 10h75c5 0 9 -5 9 -10v-85h19v198c0 5 4 9 9 9h75c5 0 10 -4 10 -9v-198h19v405c0 5 4 8 9 8h75c5 0 10 -3 10 -8v-405h18v273c0 5 5 9 10 9h75c5 0 9 -4 9 -9z"/>
    <glyph glyph-name="Q" unicode="Q" horiz-adv-x="512" d="M10 224c0 69 30 126 67 163s94 68 163 68c70 0 125 -30 163 -68l-164 -163v-231c-46 0 -85 14 -115 31c-50 29 -89 77 -106 138c-6 20 -8 42 -8 62zM260 -26v231l164 -163c-46 -46 -100 -68 -164 -68zM445 387c38 -38 68 -94 68 -163s-30 -127 -68 -164l-163 164z"/>
    <glyph glyph-name="R" unicode="R" horiz-adv-x="512" d="M2 111v26c0 15 10 17 20 23c20 12 42 26 67 34v38c-11 3 -14 9 -14 23v26c0 27 16 45 44 45s43 -18 43 -45v-26c0 -7 0 -13 -3 -16s-7 -6 -12 -7v-38c8 -3 18 -6 28 -11c-20 -10 -49 -26 -82 -44c-13 -8 -21 -18 -24 -31h-64c-1 0 -3 2 -3 3zM257 370c40 0 65 -25 65 -65 v-44c0 -14 -4 -24 -14 -32v-56c18 -8 52 -25 102 -54c11 -6 15 -12 15 -28v-36c0 -2 -2 -5 -4 -5h-328c-2 0 -4 3 -4 5v36c0 16 4 22 15 28c46 27 81 44 102 54v55c-10 8 -15 19 -15 33v44c0 40 25 65 66 65zM439 255c0 -14 -3 -20 -14 -23v-38c25 -8 47 -22 67 -34 c11 -6 20 -8 20 -23v-26c0 -1 -1 -3 -2 -3h-65c-3 13 -11 23 -24 31l-6 2c-31 18 -56 32 -76 42c11 5 20 9 27 11v38c-11 3 -14 9 -14 23v26c0 27 15 45 43 45s44 -18 44 -45v-26z"/>
    <glyph glyph-name="S" unicode="S" horiz-adv-x="512" d="M26 448c-2 5 2 10 7 11l117 16c6 1 13 2 19 2s13 -1 19 -2l116 -16c5 -1 9 -6 7 -11l-53 -214c-1 -5 -7 -10 -12 -10h-29v-213l-19 -19v194l-7 38h-6l-6 -38v-20h-20v-19h20v-19h-20v-20h20v-19h-20v-20h20v-20h-20v-19h20v-19h-20v-20h20v-18l-1 -1h-21l-36 39v213h-30 c-5 0 -10 5 -11 10zM169 437c-21 0 -38 -17 -38 -38s17 -38 38 -38s37 17 37 38s-16 38 -37 38zM256 170v23c20 1 31 17 36 34l49 208l58 -165c2 -6 -1 -12 -5 -14l-25 -17l118 -180l-9 -53l-17 -12l-54 11l-118 180l-21 -15c-4 -3 -8 -3 -12 0z"/>
    <glyph glyph-name="T" unicode="T" horiz-adv-x="512" d="M21 -32c-12 0 -21 10 -21 22v341h491v-341c0 -12 -10 -22 -22 -22h-448zM469 438c12 0 22 -10 22 -22v-64h-491v64c0 12 9 22 21 22h43v21c0 12 9 21 21 21h22c12 0 21 -9 21 -21v-21h235v21c0 12 9 21 21 21h21c12 0 22 -9 22 -21v-21h42zM43 11h64v64h-64v-64zM43 96 h64v64h-64v-64zM43 182h64v64h-64v-64zM128 11h64v64h-64v-64zM128 96h64v64h-64v-64zM128 182h64v64h-64v-64zM213 11h64v64h-64v-64zM213 96h64v64h-64v-64zM213 182h64v64h-64v-64zM299 11h64v64h-64v-64zM299 96h64v64h-64v-64zM299 182h64v64h-64v-64zM384 11h64v64 h-64v-64zM384 96h64v64h-64v-64zM384 182h64v64h-64v-64z"/>
    <glyph glyph-name="U" unicode="U" horiz-adv-x="512" d="M55 247c-29 26 -53 66 -53 118c0 46 20 83 44 109l26 -26c-21 -24 -32 -52 -32 -83c0 -40 19 -71 42 -91zM59 55v56c0 11 7 20 18 20h57v93l19 76v75c0 6 3 8 9 8s9 -3 10 -8v-75l18 -76v-93h301c11 0 19 -9 19 -20v-56c0 -20 -18 -37 -38 -37v-19h-375v19 c-20 0 -38 17 -38 37zM116 309c-15 12 -26 31 -26 56c0 18 6 33 17 47l27 -26c-4 -6 -7 -13 -7 -21c0 -13 7 -24 16 -29zM181 336c9 5 17 16 17 29c0 7 -3 15 -7 21l26 26c12 -14 18 -29 18 -47c0 -25 -12 -44 -27 -56zM279 474c24 -26 43 -62 43 -109 c0 -51 -24 -92 -53 -118l-26 27c23 20 41 51 41 91c0 31 -10 59 -31 83zM246 74h20v19h-20v-19zM284 74h19v19h-19v-19zM322 74h19v19h-19v-19zM359 74h20v19h-20v-19zM416 55h37v38h-37v-38z"/>
    <glyph glyph-name="V" unicode="V" horiz-adv-x="512" d="M43 96c-12 0 -22 10 -22 22v149c0 12 10 21 22 21h192c12 0 21 -9 21 -21h21v29c-14 20 -21 42 -21 67c0 35 15 64 34 83s48 34 83 34s64 -15 83 -34s35 -48 35 -83c0 -25 -8 -47 -22 -67v-267c0 -33 -27 -61 -60 -61h-71c-33 0 -61 28 -61 61v89h-21 c0 -12 -9 -22 -21 -22h-192zM373 438c-41 0 -74 -34 -74 -75s33 -75 74 -75s75 34 75 75s-34 75 -75 75zM320 54h21v21h-21v-21zM427 363c0 -29 -25 -53 -54 -53c-28 0 -51 22 -53 48c7 -4 14 -6 22 -6c23 0 42 20 42 43c0 7 -2 14 -6 21c26 -2 49 -25 49 -53zM341 11h22v21 h-22v-21zM363 54h21v21h-21v-21zM384 11h21v21h-21v-21zM405 54h22v21h-22v-21z"/>
    <glyph glyph-name="W" unicode="W" horiz-adv-x="512" d="M0 288h204l63 192h1l62 -192h201l-163 -115l62 -189l-164 118l-163 -118l63 188zM103 -17zM133 246l83 -57l-31 -94l81 59l83 -60l-31 95l81 57h-100l-32 98l-32 -98h-102z"/>
    <glyph glyph-name="X" unicode="X" horiz-adv-x="512" d="M0 286h198l61 186h1l60 -186h194l-158 -111l61 -183l-159 114l-158 -114l61 182zM100 -9z"/>
    <glyph glyph-name="Y" unicode="Y" horiz-adv-x="512" d="M51 36c-38 38 -44 103 -4 143l48 47c7 -23 19 -44 36 -61l-35 -35c-13 -15 -10 -32 3 -45l38 -37c12 -12 33 -20 48 -7l118 120c13 15 7 36 -5 48l-62 61l48 48c21 -20 42 -42 62 -62c21 -21 40 -56 30 -99c-4 -17 -11 -31 -24 -44l-119 -120c-19 -19 -44 -27 -72 -26 s-52 12 -72 32zM128 235c-12 40 3 75 24 96l119 119c40 39 104 34 142 -4l37 -37c39 -38 46 -102 6 -144l-49 -48c-6 22 -18 43 -35 61l36 35c13 15 6 36 -6 48l-37 37c-6 6 -17 14 -30 12c-5 -1 -11 -5 -15 -9l-119 -119c-13 -15 -10 -32 3 -45l64 -64l-48 -48 c-21 21 -44 43 -65 64c-14 14 -22 29 -27 46z"/>
    <glyph glyph-name="Z" unicode="Z" horiz-adv-x="512" d="M0 216c6 11 19 28 29 39c32 38 75 73 125 94c26 10 63 19 100 19c74 0 128 -28 170 -60c25 -19 45 -40 63 -62c7 -9 13 -16 16 -22l5 -8c-14 -14 -40 -36 -58 -50c-22 -17 -59 -39 -87 -52s-70 -25 -109 -25c-50 0 -91 16 -125 33c-43 21 -79 49 -112 78 c-6 5 -9 9 -12 12zM156 145c-22 22 -39 55 -39 96c0 7 0 14 2 23c-28 -14 -52 -30 -71 -48c34 -31 70 -54 108 -71zM186 241c0 26 13 45 29 56c-18 -3 -36 -9 -54 -15c-6 -14 -9 -27 -9 -41c0 -42 22 -73 50 -89c16 -9 34 -14 52 -14c41 0 72 25 88 52c9 16 14 33 14 51 c0 14 -4 28 -10 42c-18 6 -35 12 -53 14c16 -11 29 -30 29 -56c0 -38 -30 -69 -68 -69s-68 31 -68 69zM239 210c-10 5 -17 14 -19 26l-14 -14c4 -11 11 -19 20 -25zM350 143c42 17 88 47 117 73c-20 18 -50 36 -78 50c2 -10 2 -17 2 -25c0 -42 -19 -76 -41 -98z"/>
    <glyph glyph-name="zero" unicode="0" horiz-adv-x="512" d="M-2 219c6 11 19 28 29 39c32 38 75 72 125 93c26 10 64 20 101 20c22 0 45 -4 71 -11l27 69h42l-160 -410h-43l29 74c-54 8 -99 32 -137 57c-30 19 -55 40 -78 63zM154 148c-22 22 -39 55 -39 96c0 8 0 16 2 24c-28 -14 -52 -31 -71 -49c28 -26 68 -53 108 -71zM250 176 c-37 1 -66 31 -66 68c0 26 13 45 29 56c-17 -2 -35 -7 -54 -14c-6 -14 -9 -28 -9 -42c0 -53 40 -93 87 -101zM237 213c-10 5 -16 14 -18 26l-14 -13c4 -11 10 -19 20 -25zM313 162c22 17 41 46 41 82c0 6 0 12 -1 18l29 76c47 -26 84 -62 114 -103c3 -5 6 -9 8 -11l2 -5 c-11 -12 -33 -31 -48 -43c-34 -26 -75 -52 -121 -68c-17 -6 -34 -11 -50 -13zM349 146c42 17 88 47 117 73c-20 18 -51 37 -79 51c2 -8 2 -17 2 -26c0 -42 -18 -76 -40 -98z"/>
    <glyph glyph-name="one" unicode="1" horiz-adv-x="512" d="M164 427c-52 -20 -96 -58 -124 -104l-28 32c-11 12 -7 31 4 41l79 67c13 11 31 6 41 -5zM49 206c0 62 28 113 61 146s84 60 146 60s113 -27 146 -60s61 -84 61 -146c0 -65 -28 -114 -61 -147c-25 -25 -54 -42 -91 -53c-18 -5 -37 -7 -55 -7c-62 0 -113 27 -146 60 s-61 85 -61 147zM105 206c0 -45 20 -83 44 -107s62 -44 107 -44s83 20 107 44s44 62 44 107s-20 82 -44 106s-62 44 -107 44s-83 -20 -107 -44s-44 -61 -44 -106zM190 187c-5 0 -9 4 -9 9v18c0 5 4 10 9 10h33c3 7 9 10 15 14v71c0 5 3 9 8 9h19c5 0 9 -4 9 -9v-71 c9 -6 20 -18 20 -32c0 -20 -18 -38 -38 -38c-15 0 -27 9 -33 19h-33zM473 321c-27 46 -72 85 -124 105l28 32c9 11 28 16 41 5l80 -66c11 -10 15 -29 4 -41z"/>
    <glyph glyph-name="two" unicode="2" horiz-adv-x="512" d="M0 224c0 77 34 141 75 182s104 74 181 74s140 -33 181 -74s75 -105 75 -182s-34 -140 -75 -181s-104 -75 -181 -75s-140 34 -181 75s-75 104 -75 181zM64 224c0 -57 26 -105 56 -135s78 -57 136 -57c57 0 106 27 136 57s56 78 56 135s-26 106 -56 136s-78 56 -136 56 c-57 0 -106 -26 -136 -56s-56 -78 -56 -136zM160 203c-6 0 -11 5 -11 11v21c0 6 5 11 11 11h59c7 10 21 21 37 21c3 0 7 -1 12 -2l69 69c2 2 5 3 8 3s5 -1 7 -3l15 -15c2 -2 3 -4 3 -7s-1 -6 -3 -8l-70 -70c1 -4 2 -7 2 -10c0 -23 -20 -42 -43 -42c-16 0 -30 11 -37 21h-59z "/>
    <glyph glyph-name="three" unicode="3" horiz-adv-x="512" d="M21 206c0 70 32 129 69 166s96 69 166 69s129 -32 166 -69s69 -96 69 -166c0 -74 -31 -128 -69 -166c-28 -28 -62 -48 -104 -60c-20 -6 -41 -9 -62 -9c-70 0 -129 32 -166 69s-69 96 -69 166zM85 206c0 -51 23 -94 50 -121s70 -50 121 -50s94 23 121 50s50 70 50 121 s-23 94 -50 121s-70 50 -121 50s-94 -23 -121 -50s-50 -70 -50 -121zM235 169c-12 7 -22 20 -22 37s11 30 22 37v77c0 6 4 11 10 11h22c6 0 10 -5 10 -11v-77c11 -7 22 -20 22 -37s-10 -30 -22 -37v-19c0 -6 -4 -11 -10 -11h-22c-6 0 -10 5 -10 11v19zM288 544 c6 0 11 -5 11 -11v-53c-10 1 -25 2 -43 2s-32 -1 -43 -2v53c0 6 5 11 11 11h64zM472 371c-13 17 -28 32 -45 45l32 32c2 2 4 3 7 3s6 -1 8 -3l30 -31c2 -2 3 -4 3 -7s-1 -6 -3 -8z"/>
    <glyph glyph-name="four" unicode="4" horiz-adv-x="512" d="M9 118v194c0 19 16 36 35 36h227c18 19 46 35 82 35s65 -16 83 -36c17 -2 31 -17 31 -35v-194c0 -19 -15 -35 -34 -35v-18l-27 -17l-26 17v18h-283v-18l-26 -17l-27 17v18c-19 0 -35 16 -35 35zM44 189h194v18h-194v-18zM44 224h194v18h-194v-18zM49 171 c6 -9 17 -17 31 -17h158v17h-189zM49 260h189v17h-158c-14 0 -25 -8 -31 -17zM203 365v18h60c-6 -6 -10 -12 -15 -18h-45zM245 452l12 13l54 -53c-5 -2 -11 -5 -18 -8zM353 346c-42 0 -77 -35 -77 -77s35 -78 77 -78s78 36 78 78s-36 77 -78 77zM353 208 c-33 0 -60 28 -60 61c0 7 2 14 4 21c5 -7 12 -11 21 -11c13 0 25 11 25 24c0 9 -4 16 -11 21c7 2 14 4 21 4c33 0 60 -26 60 -59s-27 -61 -60 -61zM344 488h18v-71c-1 0 -4 1 -9 1s-8 -1 -9 -1v71zM395 412l53 53l13 -13l-48 -48c-7 3 -13 6 -18 8zM443 383h60v-18h-45 c-5 6 -9 12 -15 18z"/>
    <glyph glyph-name="five" unicode="5" horiz-adv-x="512" d="M512 225c0 -16 -2 -29 -4 -43h-65l2 13c3 17 2 15 2 19c0 0 0 2 1 11c0 58 -26 106 -56 136c-30 31 -78 56 -136 56c-57 0 -106 -26 -136 -56s-56 -78 -56 -136c0 -57 26 -106 56 -136s78 -56 136 -56c46 0 72 12 103 31l-32 45c-3 5 -2 9 4 9h146c5 0 9 -5 7 -11 l-47 -137c-2 -6 -6 -7 -9 -2l-32 44l-1 -1c-35 -23 -86 -42 -139 -42c-79 0 -143 33 -184 75c-40 41 -72 104 -72 181s34 140 75 181s104 75 181 75s140 -34 181 -75s75 -104 75 -181zM160 203c-6 0 -11 5 -11 11v21c0 6 5 11 11 11h59c7 10 21 21 37 21c3 0 7 -1 12 -2 l69 69c2 2 5 3 8 3s5 -1 7 -3l15 -15c2 -2 3 -4 3 -7s-1 -6 -3 -8l-70 -70c1 -4 2 -7 2 -10c0 -23 -20 -42 -43 -42c-16 0 -30 11 -37 21h-59z"/>
    <glyph glyph-name="six" unicode="6" horiz-adv-x="512" d="M16 224c-9 0 -16 8 -16 17v79c0 9 7 17 16 17v7c0 5 3 8 8 8h40v10c0 11 7 18 15 21v66h354v-66c8 -3 15 -10 15 -21v-10h40c5 0 8 -3 8 -8v-7c9 0 16 -8 16 -17v-79c0 -9 -7 -17 -16 -17v-8c0 -5 -3 -8 -8 -8h-40v-184c0 -5 -3 -8 -8 -8h-31c-5 0 -9 3 -9 8v24h-288v-24 c0 -5 -4 -8 -9 -8h-31c-5 0 -8 3 -8 8v184h-40c-5 0 -8 3 -8 8v8zM79 142l17 -14h64v32l-81 16v-34zM103 337c-5 0 -7 -4 -7 -9v-75c0 -8 6 -11 13 -13c11 -4 34 -9 49 -11c26 -5 66 -7 98 -7c47 0 92 5 128 13c9 2 15 3 19 5l6 2c4 2 7 6 7 11v75c0 5 -2 9 -7 9h-306z M112 96h48v16h-48v-16zM176 144h160v16h-160v-16zM176 176h160v16h-160v-16zM208 64h96v32h-96v-32zM352 96h48v16h-48v-16zM352 128h64l17 14v34l-81 -16v-32z"/>
    <glyph glyph-name="seven" unicode="7" horiz-adv-x="512" d="M-21 -32v86h405l128 128v-86l-21 -21v21l-22 -21v-21l-42 -43v21l-22 -21v-21l-21 -22h-85v22h-64v-22h-86v22h-64v-22h-106zM21 75v64h150v-64h-150zM21 160v86h150v-86h-150zM21 267v85h150v-85h-150zM21 374v27c0 13 2 17 9 24l34 34h149c-15 -16 -26 -26 -33 -33 c-8 -8 -9 -10 -9 -24v-28h-150zM85 480l36 36c4 4 7 7 16 7h140l-42 -43h-150zM213 75v64h150l42 43v-64l-42 -43h-150zM213 160v86h150l42 42v-85l-42 -43h-150zM213 267v85h150l42 43v-85l-42 -43h-150zM213 374v28c0 13 3 17 10 24l33 33h138c8 0 11 -3 11 -11v-32 l-42 -42h-150zM427 459c0 15 -7 21 -22 21h-128l43 43h128c16 0 21 -5 21 -21v-22l-42 -42v21zM427 139v64l42 43v-64zM427 224v86l42 42v-85zM427 331v85l42 43v-85z"/>
    <glyph glyph-name="eight" unicode="8" horiz-adv-x="512" d="M0 224c0 77 34 141 75 182s104 74 181 74s140 -33 181 -74s75 -105 75 -182s-34 -140 -75 -181s-104 -75 -181 -75s-140 34 -181 75s-75 104 -75 181zM64 224c0 -57 26 -105 56 -135s78 -57 136 -57c57 0 106 27 136 57s56 78 56 135s-26 106 -56 136s-78 56 -136 56 c-57 0 -106 -26 -136 -56s-56 -78 -56 -136zM145 108c-5 -2 -7 0 -5 5l66 147c2 5 9 12 14 14l147 67c5 2 7 -1 5 -6l-66 -146c-2 -5 -9 -12 -14 -14zM256 250c-14 0 -25 -12 -25 -26s11 -25 25 -25s25 11 25 25s-11 26 -25 26z"/>
    <glyph glyph-name="nine" unicode="9" horiz-adv-x="512" d="M220 107v74h-140v34h352v-34h-159v-74c34 -7 71 -31 71 -68c0 -31 -24 -51 -48 -61c-15 -7 -32 -9 -49 -9c-36 0 -67 14 -84 35c-8 11 -13 22 -13 35c0 37 36 61 70 68zM88 234l27 158h9c0 49 11 77 32 86c17 7 37 2 58 -15l6 7l34 -34l-24 -25l-34 34l5 5 c-26 21 -45 18 -54 -11c-4 -12 -6 -27 -6 -47h256l27 -158h-336zM247 22c12 0 26 5 26 17c0 -12 -14 -17 -26 -17s-27 5 -27 17c0 -12 15 -17 27 -17z"/>
    <glyph glyph-name="exclam" unicode="!" horiz-adv-x="512" d="M21 60c-27 47 -13 101 19 133c71 71 144 145 215 216l9 8c6 5 10 10 16 15l10 7c0 -1 1 1 5 4c39 23 92 30 139 8c42 -19 72 -56 80 -109c5 -37 -3 -64 -15 -89c-8 -14 -17 -28 -28 -39l-207 -207c-2 -2 -3 -4 -6 -4c-2 0 -6 1 -9 4c-4 4 -13 15 -16 18c-1 1 -1 3 -1 4 s0 3 1 4l203 203c24 24 38 51 40 78c3 39 -15 69 -38 88c-20 16 -48 28 -83 21c-12 -2 -25 -7 -36 -15c-27 -18 -31 -24 -55 -48l-139 -139c-23 -23 -52 -44 -68 -72c-7 -11 -13 -28 -10 -45c4 -25 23 -44 46 -50c28 -7 53 5 67 19c53 53 104 105 157 158l69 68 c8 8 14 21 7 32c-5 8 -12 15 -25 13c-6 -1 -12 -4 -17 -9l-123 -123s-8 -9 -26 -27c-2 -2 -15 -17 -20 -12l-21 21c-2 3 -2 4 0 7c24 24 89 91 117 119c22 22 36 35 44 43c15 14 36 27 64 21c34 -7 57 -40 46 -82c-3 -12 -9 -23 -17 -31c-23 -23 -45 -46 -68 -69 c-30 -30 -60 -59 -90 -89c-23 -23 -46 -51 -71 -72s-61 -37 -104 -26c-26 7 -48 24 -61 45z"/>
    <glyph glyph-name="quotedbl" unicode="&quot;" horiz-adv-x="512" d="M32 203c0 89 50 157 109 192c13 9 30 13 30 -7v-38c0 -14 -7 -17 -15 -22c-33 -26 -60 -69 -60 -125c0 -48 22 -88 47 -113s65 -47 113 -47s88 22 113 47s47 65 47 113c0 55 -28 98 -60 124c-8 5 -15 10 -15 23v39c0 18 17 13 28 7c60 -35 111 -103 111 -193 c0 -67 -31 -123 -66 -158s-91 -66 -158 -66s-123 31 -158 66s-66 91 -66 158zM235 267c-12 0 -22 9 -22 21v171c0 12 10 21 22 21h42c12 0 22 -9 22 -21v-171c0 -12 -10 -21 -22 -21h-42z"/>
    <glyph glyph-name="numbersign" unicode="#" horiz-adv-x="512" d="M196 -14v10c-6 4 -8 6 -14 12c-4 4 -6 6 -6 8v23c-8 9 -13 22 -13 37c0 56 -33 85 -56 118c-19 25 -35 59 -35 102c0 56 23 103 52 132s74 51 130 51h2c56 0 101 -22 130 -51c29 -30 51 -76 51 -132c0 -75 -45 -109 -74 -156c-11 -18 -18 -36 -18 -64 c0 -13 -2 -25 -9 -34v-26c0 -5 -11 -13 -15 -16l-5 -4v-10c0 -6 -4 -11 -10 -11h-101c-6 0 -9 5 -9 11zM256 440c-83 0 -144 -61 -144 -144c0 -73 53 -97 75 -148c8 -20 16 -43 16 -72h103c0 57 24 91 49 124c25 32 43 51 43 96c0 59 -31 102 -70 125c-22 12 -46 19 -72 19z "/>
    <glyph glyph-name="dollar" unicode="$" horiz-adv-x="512" d="M0 470c0 6 5 10 11 10h190c7 0 14 -4 18 -7l286 -286c2 -2 3 -4 3 -7s-1 -6 -3 -8l-197 -196c-2 -2 -4 -3 -7 -3s-6 1 -8 3l-285 286c-4 3 -8 12 -8 18v190zM107 416c-23 0 -43 -19 -43 -42s20 -43 43 -43s42 20 42 43s-19 42 -42 42z"/>
    <glyph glyph-name="percent" unicode="%" horiz-adv-x="512" d="M0 421c0 5 4 8 9 8h152c5 0 12 -4 14 -6l229 -229c2 -2 3 -3 3 -5s-1 -5 -3 -7l-157 -157c-2 -2 -4 -2 -6 -2s-4 0 -6 2l-229 229c-2 2 -6 10 -6 15v152zM86 378c-18 0 -35 -16 -35 -34s17 -34 35 -34s33 16 33 34s-15 34 -33 34zM203 429h52c15 0 20 -4 28 -12l217 -216 c6 -6 6 -17 0 -24l-152 -152c-4 -3 -9 -2 -12 1l-27 27l123 124c9 9 9 15 0 24z"/>
    <glyph glyph-name="ampersand" unicode="&amp;" horiz-adv-x="512" d="M3 160v45l2 4c18 50 47 81 86 94c13 4 26 7 41 7c35 0 59 -12 78 -28c23 -19 42 -48 49 -80v-42h-21v-170l-22 -22h-170l-21 22v170h-22zM228 203c-2 9 -10 23 -15 31c-15 24 -41 47 -81 47c-32 0 -53 -14 -69 -30c-13 -13 -22 -30 -28 -48h193zM259 -32l22 86h213 l21 -86h-256zM494 102v-38h-213v38c0 12 4 16 16 16h69v346c0 12 9 22 21 22s22 -10 22 -22v-346h58c12 0 27 -4 27 -16z"/>
    <glyph glyph-name="quotesingle" unicode="'" horiz-adv-x="512" d="M4 83v254h18v-188h19v188h19v-113h18v113h19v-113h19v113h19v-113h18v113h20v-113h18v113h19v-188h19v188h18v-113h19v113h19v-113h19v113h18v-113h20v113h18v-113h19v113h19v-188h19v188h18v-113h19v113h19v-113h18v113h20v-254c0 -5 -5 -9 -10 -9h-489c-5 0 -8 4 -8 9z "/>
    <glyph glyph-name="parenleft" unicode="(" horiz-adv-x="512" d="M11 288c-6 0 -11 3 -11 9v63c0 6 5 14 11 14h34c-2 0 16 86 16 86c6 22 31 43 61 35c11 -3 24 -11 34 -16l80 -36c7 -4 12 -9 17 -15c5 6 10 11 17 15l77 35c20 8 45 28 73 14c13 -7 22 -17 26 -32c12 -57 17 -86 16 -86h39c6 0 11 -7 11 -13v-64c0 -6 -5 -9 -11 -9h-32 v-64h-170v150h-86v-150h-170v64h-32zM43 -32v171h170v-171h-170zM98 380c-1 -2 1 -6 3 -6h106l3 8l-99 59zM299 -32v171h170v-171h-170zM302 382l3 -8h105c2 0 5 3 4 6l-14 62z"/>
    <glyph glyph-name="parenright" unicode=")" horiz-adv-x="512" d="M106 249c-36 0 -62 -16 -78 -48h-1c0 68 27 126 61 164s87 71 151 76v19c0 10 7 18 17 18s17 -8 17 -18v-19c64 -5 117 -38 151 -76s61 -95 61 -164h-1c-16 31 -42 47 -78 47c-34 0 -59 -15 -75 -36c-16 21 -41 40 -75 40c-33 0 -59 -20 -75 -41c-16 21 -41 38 -75 38z M273 55c0 -43 -28 -71 -72 -71c-42 0 -68 28 -68 71v8c0 5 3 9 8 9h18c5 0 9 -4 9 -9v-8c0 -22 12 -36 35 -36s36 14 36 36v155c0 2 14 3 17 3s17 -1 17 -3v-155z"/>
    <glyph glyph-name="asterisk" unicode="*" horiz-adv-x="512" d="M405 32c0 -35 -29 -64 -64 -64h-320v432l75 80h309c33 0 59 -22 73 -44c8 -13 13 -27 13 -41v-320l-43 -43v342c0 43 -21 64 -64 64h-262l-42 -43h261c35 0 64 -29 64 -64v-299z"/>
    <glyph glyph-name="plus" unicode="+" horiz-adv-x="512" d="M416 480c6 0 11 -4 11 -10v-483c0 -8 -7 -12 -12 -6l-147 131l-151 -134c-4 -4 -10 -2 -10 4v488c0 6 4 10 10 10h299z"/>
    <glyph glyph-name="comma" unicode="," horiz-adv-x="512" d="M257 350c-95 0 -172 -41 -222 -91l-33 33c58 58 146 106 255 106s196 -48 254 -107l-33 -33c-50 51 -126 92 -221 92zM257 255c-66 0 -119 -29 -154 -64l-36 35c43 43 109 79 190 79s146 -36 189 -79l-36 -35c-35 36 -87 64 -153 64zM257 163c-38 0 -70 -16 -90 -36 l-31 32c28 28 69 50 121 50s93 -23 121 -51l-32 -32c-20 21 -50 37 -89 37zM200 94c13 13 33 24 57 24c25 0 43 -11 56 -24l-56 -57z"/>
    <glyph glyph-name="hyphen" unicode="-" horiz-adv-x="512" d="M469 438c12 0 22 -10 22 -22c0 -45 -1 -79 -4 -114c-3 -31 -13 -48 -27 -67c-22 -28 -40 -45 -73 -59c-23 -9 -64 -24 -95 -14c-7 -14 -12 -28 -15 -41v-25c0 -15 6 -29 17 -42h26v-22h21v-64h-170v64h21v22h26c11 13 17 26 17 42v21c-3 14 -10 28 -20 44 c-80 -4 -138 33 -168 84c-19 32 -25 82 -25 133c0 9 -1 21 -1 38c0 12 10 22 22 22h64v42h298v-42h64zM63 395c-2 -47 0 -89 16 -120c6 -13 15 -25 26 -36c17 -13 20 -17 42 -25c10 -4 22 -7 36 -9c-22 28 -28 35 -46 64c-22 35 -30 65 -30 118v8h-44zM449 352 c0 5 -1 38 -1 43h-43c0 -18 1 -42 -2 -56c-14 -57 -50 -95 -82 -135c39 3 66 13 87 35c27 27 41 58 41 113z"/>
    <glyph glyph-name="period" unicode="." horiz-adv-x="512" d="M22 42c0 41 33 75 74 75c13 0 26 -4 38 -11l56 44l-71 74h-55l-23 93l-68 18c-9 3 -18 13 -14 26c3 10 13 16 26 12l79 -21l12 -21h177l-40 171h86l118 -43l74 -85l-74 -150h-240l143 -149h75c29 0 53 -24 53 -53s-24 -54 -53 -54s-53 25 -53 54c0 7 0 10 1 10h-41 l-83 87l-56 -45c5 -10 8 -21 8 -32c0 -41 -34 -74 -75 -74s-74 33 -74 74zM96 74c-17 0 -32 -15 -32 -32s15 -32 32 -32s32 15 32 32s-15 32 -32 32zM395 35c-7 0 -14 -6 -14 -13c0 -8 7 -14 14 -14c8 0 13 6 13 14c0 7 -5 13 -13 13z"/>
    <glyph glyph-name="slash" unicode="/" horiz-adv-x="512" d="M11 75c-6 0 -11 5 -11 11v128c0 75 37 139 77 179s104 77 179 77s139 -37 179 -77s77 -104 77 -179v-128c0 -6 -5 -11 -11 -11h-21c-6 0 -11 5 -11 11v128c0 60 -30 109 -64 138c-35 30 -88 54 -149 54s-114 -24 -149 -54c-34 -29 -64 -78 -64 -138v-128 c0 -6 -5 -11 -11 -11h-21zM136 -21c0 -6 -5 -11 -11 -11h-54c-5 0 -7 4 -7 11v170c0 7 2 11 7 11h54c6 0 11 -4 11 -10c6 -18 11 -58 11 -86c0 -25 -3 -59 -8 -76zM376 -21c-6 18 -11 57 -11 85c0 25 3 59 8 76l3 10c0 6 5 10 11 10h54c5 0 7 -4 7 -11v-170 c0 -7 -2 -11 -7 -11h-54c-6 0 -11 5 -11 11z"/>
    <glyph glyph-name="colon" unicode=":" horiz-adv-x="512" d="M47 137c-5 0 -9 5 -9 10v109c0 64 31 118 65 152s89 66 153 66s119 -32 153 -66s65 -88 65 -152v-159c-2 -13 -11 -28 -19 -37c-11 -15 -32 -30 -51 -39c-25 -13 -61 -22 -97 -26c-5 -11 -18 -22 -33 -22h-18c-20 0 -37 17 -37 37s17 36 37 36h18c13 0 22 -6 30 -16 c55 6 100 24 125 58c5 7 6 8 9 15v153c0 51 -26 92 -55 117c-30 26 -75 47 -127 47s-97 -21 -127 -47c-29 -25 -55 -66 -55 -117v-109c0 -5 -4 -10 -9 -10h-18zM154 55c0 -5 -5 -9 -10 -9h-46c-4 0 -6 3 -6 9v145c0 6 2 10 6 10h46c5 0 10 -4 10 -9c5 -15 9 -49 9 -73 c0 -21 -3 -50 -7 -65zM358 201c0 5 5 9 10 9h46c4 0 6 -4 6 -10v-83c-17 -21 -40 -34 -66 -42c-3 26 -5 43 -5 53c0 21 3 50 7 65z"/>
    <glyph glyph-name="semicolon" unicode=";" horiz-adv-x="512" d="M32 6c-15 0 -27 12 -27 27c0 5 0 10 3 14l225 381c4 8 13 14 24 14s19 -6 23 -14l226 -381c3 -4 4 -9 4 -14c0 -15 -13 -27 -28 -27h-450zM79 60h356l-178 306zM237 79c-3 0 -7 4 -7 7v41c0 3 4 7 7 7h41c4 0 6 -3 6 -7v-41c0 -3 -3 -7 -6 -7h-41zM275 279c5 0 9 -4 9 -9 v-34c0 -5 0 -10 -1 -14l-12 -63c-1 -3 -5 -8 -9 -8h-11c-3 0 -7 5 -8 8l-12 62c-1 4 -1 10 -1 15v34c0 5 3 9 8 9h37z"/>
    <glyph glyph-name="less" unicode="&lt;" horiz-adv-x="512" d="M75 118c6 0 10 -5 10 -11v-139h-85v139c0 6 5 11 11 11h64zM181 182c6 0 11 -5 11 -11v-203h-85v203c0 6 4 11 10 11h64zM288 246c6 0 11 -5 11 -11v-267h-86v267c0 6 5 11 11 11h64zM395 352c6 0 10 -4 10 -10v-374h-85v374c0 6 5 10 11 10h64zM501 480 c6 0 11 -4 11 -10v-502h-85v502c0 6 4 10 10 10h64z"/>
    <glyph glyph-name="equal" unicode="=" horiz-adv-x="512" d="M65 79c-5 0 -10 3 -10 8v156h-45c-5 0 -6 6 -3 9l71 96c3 3 8 5 11 1l71 -97c3 -4 1 -9 -4 -9h-46v-109h213l43 -55h-301zM457 343v-155h45c5 0 6 -4 3 -8l-71 -93c-2 -2 -3 -4 -5 -4s-4 1 -6 3l-71 94c-3 4 0 8 5 8h45v109h-212l-42 55h299c5 0 10 -4 10 -9z"/>
    <glyph glyph-name="greater" unicode="&gt;" horiz-adv-x="512" d="M8 161c-31 132 35 233 112 281c49 30 108 48 184 33c33 -6 65 -18 93 -37l31 43c3 5 8 4 10 -1l41 -133c2 -6 -3 -10 -8 -10l-138 -3c-6 0 -8 4 -5 9l31 43c-53 34 -122 41 -185 12c-54 -25 -98 -78 -108 -146c-4 -31 -2 -61 8 -89l-4 -1zM32 102c-2 6 3 10 8 10l139 2 c6 0 7 -3 4 -8l-31 -43c35 -23 83 -37 139 -27c51 9 94 39 120 76c21 29 37 68 36 115c0 20 -3 39 -9 58l65 1c22 -83 -3 -160 -40 -212c-35 -49 -93 -89 -161 -102c-75 -14 -141 8 -187 39l-32 -43c-3 -5 -7 -5 -9 1z"/>
    <glyph glyph-name="question" unicode="?" horiz-adv-x="512" d="M145 25c-65 26 -118 82 -138 154c-11 41 -11 81 0 122l53 -30c-11 -59 10 -109 37 -142c16 -19 35 -34 57 -45c3 19 6 34 7 41c2 8 5 9 11 3l83 -83c6 -7 7 -10 -1 -15c0 0 -94 -53 -105 -58c-7 -4 -12 -4 -11 6zM41 328c2 71 3 110 4 118c1 9 5 10 12 4l32 -26 c25 19 52 33 81 41c98 25 176 -11 225 -59l-53 -31c-37 31 -92 50 -157 34c-17 -5 -35 -12 -50 -23c18 -15 30 -24 34 -28c5 -4 7 -9 -1 -12c-2 -1 -109 -27 -112 -28c-13 -4 -15 -3 -15 10zM290 16v60c66 24 121 90 115 177c-23 -10 -37 -16 -42 -18c-7 -3 -9 1 -7 8 l28 119c1 5 4 7 9 4l109 -61c5 -3 6 -9 1 -11l-42 -17c9 -60 -5 -112 -27 -151c-29 -51 -79 -92 -141 -109c-1 0 -2 -1 -3 -1z"/>
    <glyph glyph-name="at" unicode="@" horiz-adv-x="512" d="M9 110v35c0 5 5 9 10 9h104l212 194h62v44c0 5 4 5 8 3l92 -69c2 -2 2 -2 2 -4s0 -4 -2 -6l-92 -69c-4 -3 -8 -2 -8 3v45h-42l-211 -194h-125c-5 0 -10 4 -10 9zM9 303v36c0 5 5 9 10 9h125l76 -70l-39 -36l-58 53h-104c-5 0 -10 3 -10 8zM258 170l40 37l57 -53h42v44 c0 5 4 6 8 4l92 -70c2 -2 3 -3 3 -5s-1 -3 -3 -5l-92 -69c-4 -3 -8 -1 -8 4v44h-62z"/>
    <glyph glyph-name="bracketleft" unicode="[" horiz-adv-x="512" d="M7 348c-5 0 -5 3 -3 7l67 91c2 2 3 3 5 3s4 -1 6 -3l70 -91c2 -4 2 -7 -3 -7h-47c0 -41 -8 -68 -20 -95c-10 -21 -17 -41 -17 -73c0 -31 7 -52 17 -73c13 -27 20 -54 20 -95h-52c0 59 -29 85 -36 138c-1 9 -2 18 -2 30c0 40 9 67 21 94c10 21 17 42 17 74h-43zM184 348 c-5 0 -6 3 -4 7l67 91c2 2 4 3 6 3s3 -1 5 -3l70 -91c3 -4 2 -7 -3 -7h-47c0 -41 -8 -68 -20 -95c-10 -21 -17 -41 -17 -73c0 -59 29 -83 36 -136c1 -9 1 -20 1 -32h-52c0 31 -7 53 -17 74c-12 27 -21 54 -21 94s9 67 21 94c10 21 17 42 17 74h-42zM360 348c-5 0 -5 3 -3 7 l67 91c2 2 3 3 5 3s3 -1 5 -3l71 -91c3 -4 1 -7 -4 -7h-46c0 -41 -9 -68 -21 -95c-10 -21 -16 -41 -16 -73c0 -31 6 -52 16 -73c12 -28 21 -54 21 -95h-53c0 31 -6 53 -16 74c-11 27 -21 54 -21 94s9 67 21 94c10 21 16 42 16 74h-42z"/>
    <glyph glyph-name="bracketright" unicode="]" horiz-adv-x="512" d="M3 224c0 60 21 112 48 150c35 49 93 89 161 102c75 14 142 -7 188 -38l31 43c3 5 8 4 10 -1l41 -133c2 -6 -3 -10 -8 -10l-138 -3c-6 0 -8 4 -5 9l31 43c-53 34 -122 41 -185 12c-60 -28 -110 -93 -110 -174c0 -57 25 -104 56 -135s77 -56 134 -57c65 -1 112 26 146 65 c6 7 14 18 24 33c6 8 19 7 27 1l17 -12c6 -4 16 -15 9 -25c-4 -6 -25 -34 -29 -39c-29 -35 -78 -65 -127 -78c-102 -27 -193 13 -246 66c-36 36 -61 82 -71 140c-2 14 -4 27 -4 41z"/>
    <glyph glyph-name="asciicircum" unicode="^" horiz-adv-x="512" d="M20 97c-10 0 -19 8 -19 18v310c0 10 9 17 19 17h472c10 0 19 -7 19 -17v-310c0 -10 -9 -18 -19 -18h-199v-18c0 -23 15 -36 36 -37h66c3 0 7 -4 7 -7v-29h-292v29c0 3 4 7 7 7h67c21 0 35 15 35 37v18h-199zM38 151h436v256h-436v-256zM457 115h17v19h-17v-19z"/>
    <glyph glyph-name="underscore" unicode="_" horiz-adv-x="512" d="M405 32c0 -35 -29 -64 -64 -64h-320v432l75 80h309c33 0 59 -22 73 -44c8 -13 13 -27 13 -41v-320l-43 -43v342c0 43 -21 64 -64 64h-262l-42 -43h261c35 0 64 -29 64 -64v-299zM114 178c0 -1 1 -3 2 -4l80 -80c1 -1 2 -1 3 -1s3 0 4 1l147 147c2 2 2 5 0 7l-33 33 c-2 2 -5 2 -8 0l-106 -107c-1 -1 -3 -1 -4 -1s-2 0 -3 1l-40 40c-1 1 -3 2 -4 2s-2 -1 -3 -2l-33 -33c-1 -1 -2 -2 -2 -3z"/>
    <glyph glyph-name="grave" unicode="`" horiz-adv-x="512" d="M405 32c0 -35 -29 -64 -64 -64h-320v432l75 80h309c33 0 59 -22 73 -44c8 -13 13 -27 13 -41v-320l-43 -43v342c0 43 -21 64 -64 64h-262l-42 -43h261c35 0 64 -29 64 -64v-299zM171 217c0 -11 12 -26 21 -29v-19c-4 -2 -72 -26 -76 -28c-7 -4 -9 -7 -9 -18v-22 c0 -3 1 -5 4 -5h204c3 0 5 2 5 5v22c0 11 -2 14 -9 18c-18 9 -57 19 -76 28v19c9 3 21 18 21 29v42c0 25 -17 42 -43 42s-42 -17 -42 -42v-42z"/>
    <glyph glyph-name="braceleft" unicode="{" horiz-adv-x="512" d="M23 -26v20h19v19h20v388h388v-388h20v-19h19v-20h-194v58h-78v-58h-194zM62 420l39 39h97l19 19h78l19 -19h97l39 -39h-388zM121 71h77v39h-77v-39zM121 148h77v39h-77v-39zM121 226h77v39h-77v-39zM121 304h77v39h-77v-39zM217 71h78v39h-78v-39zM217 148h78v39h-78v-39 zM217 226h78v39h-78v-39zM217 304h78v39h-78v-39zM314 71h77v39h-77v-39zM314 148h77v39h-77v-39zM314 226h77v39h-77v-39zM314 304h77v39h-77v-39z"/>
    <glyph glyph-name="bar" unicode="|" horiz-adv-x="512" d="M49 -26c-28 0 -49 22 -49 50c0 14 5 26 15 36l8 7c2 2 3 4 3 7c-6 24 7 50 19 62l191 192l-24 23c-7 7 -7 18 0 25l30 30c3 3 7 5 12 5s9 -2 13 -5l33 -33l71 71c22 22 42 33 60 33c14 0 27 -6 39 -18l15 -15c11 -11 21 -26 19 -44c-1 -14 -11 -30 -18 -39 c-4 -5 -10 -11 -16 -17l-68 -68c-1 -1 -2 -1 -3 -2l33 -34c7 -7 7 -17 0 -24l-30 -30c-3 -3 -7 -5 -12 -5s-8 1 -12 5l-24 24l-192 -192c-11 -11 -30 -20 -50 -20c-5 0 -8 0 -11 1c-3 0 -6 0 -8 -2l-7 -8c-10 -10 -23 -15 -37 -15zM68 118h151l114 113l-76 76z"/>
    <glyph glyph-name="braceright" unicode="}" horiz-adv-x="512" d="M-5 224c0 82 34 143 76 185c31 31 69 54 116 67c23 6 45 10 69 10c52 0 98 -16 132 -36c38 -22 72 -56 94 -94c20 -34 35 -80 35 -132s-15 -98 -35 -132c-33 -57 -87 -101 -157 -120c-23 -6 -45 -9 -69 -9c-82 0 -143 35 -185 77c-31 31 -54 68 -67 115 c-6 23 -9 45 -9 69zM49 224c0 -58 24 -106 53 -139c30 -34 77 -62 133 -68v415c-56 -6 -103 -34 -133 -68c-29 -33 -53 -82 -53 -140z"/>
    <glyph glyph-name="asciitilde" unicode="~" horiz-adv-x="512" d="M19 137c0 61 26 104 51 142c40 60 89 115 113 191c28 -95 95 -154 138 -234c14 -26 26 -60 26 -98c0 -61 -36 -100 -74 -124c-24 -15 -54 -26 -90 -26c-57 0 -100 27 -128 57c-20 21 -36 53 -36 92zM73 191c-11 -33 -16 -61 0 -88c12 -21 36 -38 67 -39c10 0 20 5 13 14 c-3 3 -7 6 -13 9c-17 8 -29 31 -29 55c0 34 5 78 14 104c4 13 -11 15 -20 8c-3 -2 -5 -4 -7 -8c-10 -16 -18 -35 -25 -55zM334 335c0 27 11 50 23 67c20 30 47 61 59 100c10 -34 30 -59 48 -85c16 -23 34 -44 34 -81c0 -32 -22 -55 -44 -66c-12 -6 -25 -9 -38 -9 c-22 0 -41 8 -55 19s-27 31 -27 55zM356 335c0 -20 19 -35 39 -36c5 0 10 2 6 6c-1 2 -3 4 -6 5c-8 4 -15 15 -15 27c0 20 2 37 7 52c1 3 0 6 -3 7c-4 1 -7 -2 -10 -7c-8 -13 -18 -35 -18 -54z"/>
    <glyph glyph-name="backslash" unicode="\" horiz-adv-x="512" d="M-21 331v85h64v-85h-64zM64 32v448h85v-64h269l79 80l30 -31l-79 -79v-268h85v-86h-469zM149 148l184 183h-184v-183zM179 118h184v183zM363 -53v64h85v-64h-85z"/>
    <glyph glyph-name="glyph94" unicode="&#57344;" d="M0 -32v86h21v341h-21v85h85v-21h342v21h85v-85h-21v-341h21v-86h-85v22h-342v-22h-85zM21 -10h43v42h-43v-42zM21 416h43v43h-43v-43zM64 54h21v-22h342v22h21v341h-21v21h-342v-21h-21v-341zM448 -10h43v42h-43v-42zM448 416h43v43h-43v-43z"/>
    <glyph glyph-name="glyph95" unicode="&#57345;" d="M213 -6c-95 18 -170 93 -188 188h-25v85h25c9 50 35 93 65 123s73 56 123 65v25h86v-25c95 -18 170 -93 188 -188h25v-85h-25c-9 -50 -35 -93 -65 -123s-73 -56 -123 -65v-26h-86v26zM21 203h43v43h-43v-43zM69 182c16 -71 73 -129 144 -145v17h86v-17 c71 16 128 74 144 145h-16v85h16c-16 71 -73 128 -144 144v-16h-86v16c-71 -16 -128 -73 -144 -144h16v-85h-16zM235 -10h42v42h-42v-42zM235 416h42v43h-42v-43zM448 203h43v43h-43v-43z"/>
    <glyph glyph-name="glyph96" unicode="&#57346;" d="M-21 246v85h65l169 123v48h86v-48l170 -123h64v-85h-32l-62 -192h9v-86h-85v22h-214v-22h-85v86h9l-63 192h-31zM0 267h43v43h-43v-43zM55 246l63 -192h31v-22h214v22h31l63 192h-9v48l-171 122h-42l-171 -123v-47h-9zM85 -10h43v42h-43v-42zM235 438h42v42h-42v-42z M384 -10h43v42h-43v-42zM469 267h43v43h-43v-43z"/>
    <glyph glyph-name="glyph97" unicode="&#57347;" d="M0 -32v86h55l372 371v55h85v-85h-55l-372 -371v-56h-85zM21 -10h43v42h-43v-42zM448 416h43v43h-43v-43z"/>
    <glyph glyph-name="glyph98" unicode="&#57348;" d="M0 -32v86h29c25 142 109 255 213 324c56 37 118 61 185 73v29h85v-85h-85v13c-93 -18 -175 -66 -232 -123s-105 -137 -123 -231h13v-86h-85zM21 -10h43v42h-43v-42zM448 416h43v43h-43v-43z"/>
    <glyph glyph-name="glyph99" unicode="&#57349;" d="M0 -32v86h21v128h-21v85h21v128h-21v85h85v-21h128v21h86v-21h128v21h85v-85h-21v-128h21v-85h-21v-128h21v-86h-85v22h-128v-22h-86v22h-128v-22h-85zM21 -10h43v42h-43v-42zM21 203h43v43h-43v-43zM21 416h43v43h-43v-43zM64 54h21v-22h128v22h86v-22h128v22h21v128 h-21v85h21v128h-21v21h-128v-21h-86v21h-128v-21h-21v-128h21v-85h-21v-128zM235 -10h42v42h-42v-42zM235 416h42v43h-42v-43zM448 -10h43v42h-43v-42zM448 203h43v43h-43v-43zM448 416h43v43h-43v-43z"/>
    <glyph glyph-name="glyph100" unicode="&#57350;" d="M7 18v24c25 11 35 21 46 41l147 366h33l139 -359c7 -19 24 -44 48 -48v-24h-150v24c25 0 36 24 28 47l-29 80h-141c-14 -35 -25 -63 -33 -84c-5 -16 -4 -28 7 -35c10 -6 21 -8 36 -8v-24h-131zM137 206h123l-42 114l-17 50zM326 262v11l18 9l71 167h15l68 -168l16 -9v-10 h-75v10l20 10l-14 38h-66l-17 -38l21 -9v-11h-57zM386 337h56l-20 53l-7 22z"/>
    <glyph glyph-name="glyph101" unicode="&#57351;" d="M107 -32v25c37 3 64 20 70 52l68 358c0 2 1 4 2 7c4 15 3 26 0 31s-15 10 -34 15v24h172v-24c-16 -4 -24 -6 -37 -11c-18 -8 -22 -20 -26 -42l-61 -358c-5 -27 16 -48 38 -52v-25h-192z"/>
    <glyph glyph-name="glyph102" unicode="&#57352;" d="M43 6c21 3 42 18 42 42v353c0 16 1 32 -10 38c-10 5 -19 8 -32 11v30h233c38 0 71 -17 94 -36c24 -20 46 -56 46 -99c0 -37 -17 -60 -37 -78c-15 -13 -34 -24 -53 -30l-5 -2c39 -10 76 -33 98 -62c13 -17 24 -44 24 -74c0 -59 -39 -92 -80 -111c-25 -12 -53 -20 -87 -20 h-233v38zM256 32c48 0 77 29 77 78c0 53 -25 93 -78 93h-63v-171h64zM311 342c0 41 -15 74 -56 74h-63v-149h63c41 0 56 34 56 75z"/>
    <glyph glyph-name="glyph103" unicode="&#57353;" d="M43 -32v43h426v-43h-426zM128 438c-40 0 -64 -24 -64 -64h-21v106h426v-106h-21c0 40 -24 64 -64 64h-85v-342c0 -23 41 -21 64 -21v-21h-214v21c20 0 38 1 52 6c7 2 12 7 12 15v342h-85z"/>
    <glyph glyph-name="glyph104" unicode="&#57354;" d="M448 374c0 40 -24 64 -64 64h-85v-171h170v-43h-170v-170c0 -23 41 -22 64 -22v-21h-214v21c20 0 38 2 52 7c7 2 12 7 12 15v170h-170v43h170v171h-85c-40 0 -64 -24 -64 -64h-21v106h426v-106h-21z"/>
    <glyph glyph-name="glyph105" unicode="&#57355;" d="M-21 75h42v341h-42l53 71l53 -71h-42v-341h42l-53 -71zM192 438c-40 0 -64 -24 -64 -64h-21v106h426v-106h-21c0 40 -24 64 -64 64h-85v-384c0 -23 41 -22 64 -22v-21h-214v21c20 0 38 2 52 7c7 2 12 7 12 15v384h-85z"/>
    <glyph glyph-name="glyph106" unicode="&#57356;" d="M36 22l71 53v-43h298v43l71 -53l-71 -54v43h-298v-43zM128 438c-40 0 -64 -24 -64 -64h-21v106h426v-106h-21c0 40 -24 64 -64 64h-85v-320c0 -23 41 -22 64 -22v-21h-214v21c20 0 38 2 52 7c7 2 12 7 12 15v320h-85z"/>
    <glyph glyph-name="glyph107" unicode="&#57357;" d="M-21 -53v64h21v427h-21v64h64v-22h426v22h64v-64h-21v-427h21v-64h-64v21h-426v-21h-64zM0 -32h21v22h-21v-22zM0 459h21v21h-21v-21zM21 11h22v-21h426v21h22v427h-22v21h-426v-21h-22v-427zM128 374c-40 0 -64 -24 -64 -64h-21v106h426v-106h-21c0 40 -24 64 -64 64 h-85v-299c0 -23 41 -21 64 -21v-22h-214v22c20 0 38 1 52 6c7 2 12 7 12 15v299h-85zM491 -32h21v22h-21v-22zM491 459h21v21h-21v-21z"/>
    <glyph glyph-name="glyph108" unicode="&#57358;" d="M0 203v21h64v43l71 -53l-71 -54v43h-64zM149 -10v469h43v-469h-43zM224 32c-6 0 -11 5 -11 11v43c0 6 5 10 11 10h277c6 0 11 -4 11 -10v-43c0 -6 -5 -11 -11 -11h-277zM224 139c-6 0 -11 5 -11 11v42c0 6 5 11 11 11h171c6 0 10 -5 10 -11v-42c0 -6 -4 -11 -10 -11h-171 zM224 246c-6 0 -11 4 -11 10v43c0 6 5 11 11 11h235c6 0 10 -5 10 -11v-43c0 -6 -4 -10 -10 -10h-235zM224 352c-6 0 -11 5 -11 11v43c0 6 5 10 11 10h128c6 0 11 -4 11 -10v-43c0 -6 -5 -11 -11 -11h-128z"/>
    <glyph glyph-name="glyph109" unicode="&#57359;" d="M11 32c-6 0 -11 5 -11 11v43c0 6 5 10 11 10h277c6 0 11 -4 11 -10v-43c0 -6 -5 -11 -11 -11h-277zM11 139c-6 0 -11 5 -11 11v42c0 6 5 11 11 11h170c6 0 11 -5 11 -11v-42c0 -6 -5 -11 -11 -11h-170zM11 246c-6 0 -11 4 -11 10v43c0 6 5 11 11 11h234c6 0 11 -5 11 -11 v-43c0 -6 -5 -10 -11 -10h-234zM11 352c-6 0 -11 5 -11 11v43c0 6 5 10 11 10h128c6 0 10 -4 10 -10v-43c0 -6 -4 -11 -10 -11h-128zM320 -10v469h43v-469h-43zM377 214l71 53v-43h64v-21h-64v-43z"/>
    <glyph glyph-name="glyph110" unicode="&#57360;" d="M11 -10c-6 0 -11 4 -11 10v43c0 6 5 11 11 11h490c6 0 11 -5 11 -11v-43c0 -6 -5 -10 -11 -10h-490zM11 118c-6 0 -11 4 -11 10v43c0 6 5 11 11 11h362c6 0 11 -5 11 -11v-43c0 -6 -5 -10 -11 -10h-362zM11 246c-6 0 -11 4 -11 10v43c0 6 5 11 11 11h447 c6 0 11 -5 11 -11v-43c0 -6 -5 -10 -11 -10h-447zM11 374c-6 0 -11 4 -11 10v43c0 6 5 11 11 11h277c6 0 10 -5 10 -11v-43c0 -6 -4 -10 -10 -10h-277z"/>
    <glyph glyph-name="glyph111" unicode="&#57361;" d="M11 -10c-6 0 -11 4 -11 10v43c0 6 5 11 11 11h490c6 0 11 -5 11 -11v-43c0 -6 -5 -10 -11 -10h-490zM11 246c-6 0 -11 4 -11 10v43c0 6 5 11 11 11h490c6 0 11 -5 11 -11v-43c0 -6 -5 -10 -11 -10h-490zM96 118c-6 0 -11 4 -11 10v43c0 6 5 11 11 11h320 c6 0 11 -5 11 -11v-43c0 -6 -5 -10 -11 -10h-320zM96 374c-6 0 -11 4 -11 10v43c0 6 5 11 11 11h320c6 0 11 -5 11 -11v-43c0 -6 -5 -10 -11 -10h-320z"/>
    <glyph glyph-name="glyph112" unicode="&#57362;" d="M11 -10c-6 0 -11 4 -11 10v43c0 6 5 11 11 11h490c6 0 11 -5 11 -11v-43c0 -6 -5 -10 -11 -10h-490zM54 246c-6 0 -11 4 -11 10v43c0 6 5 11 11 11h447c6 0 11 -5 11 -11v-43c0 -6 -5 -10 -11 -10h-447zM139 118c-6 0 -11 4 -11 10v43c0 6 5 11 11 11h362 c6 0 11 -5 11 -11v-43c0 -6 -5 -10 -11 -10h-362zM224 374c-6 0 -10 4 -10 10v43c0 6 4 11 10 11h277c6 0 11 -5 11 -11v-43c0 -6 -5 -10 -11 -10h-277z"/>
    <glyph glyph-name="glyph113" unicode="&#57363;" d="M11 -10c-6 0 -11 4 -11 10v43c0 6 5 11 11 11h490c6 0 11 -5 11 -11v-43c0 -6 -5 -10 -11 -10h-490zM11 118c-6 0 -11 4 -11 10v43c0 6 5 11 11 11h490c6 0 11 -5 11 -11v-43c0 -6 -5 -10 -11 -10h-490zM11 246c-6 0 -11 4 -11 10v43c0 6 5 11 11 11h490 c6 0 11 -5 11 -11v-43c0 -6 -5 -10 -11 -10h-490zM11 374c-6 0 -11 4 -11 10v43c0 6 5 11 11 11h490c6 0 11 -5 11 -11v-43c0 -6 -5 -10 -11 -10h-490z"/>
    <glyph glyph-name="glyph114" unicode="&#57364;" d="M128 352c-40 0 -64 -24 -64 -64h-21v107h277v-107h-21c0 41 -24 64 -64 64h-22v-256c0 -23 41 -21 64 -21v-21h-192v21c20 0 38 1 52 6c7 2 12 7 12 15v256h-21zM341 182v42h171v-42h-171z"/>
    <glyph glyph-name="glyph115" unicode="&#57365;" d="M85 416c-40 0 -64 -24 -64 -64h-21v107h427v-107h-22c0 41 -24 64 -64 64h-85v-384c0 -23 41 -21 64 -21v-21h-213v21c20 0 38 1 52 6c7 2 12 7 12 15v384h-86zM341 182v42h64v64h43v-64h64v-42h-64v-64h-43v64h-64z"/>
    <glyph glyph-name="glyph116" unicode="&#57366;" d="M0 197v25l188 104v-45l-135 -71l135 -76v-46zM324 88v46l135 76l-135 71v45l188 -104v-25z"/>
    <glyph glyph-name="glyph117" unicode="&#57367;" d="M0 197v25l188 104v-45l-135 -71l135 -76v-46zM192 19l161 410h42l-160 -410h-43zM324 88v30l9 20l126 72l-81 43l13 36l121 -67v-25z"/>
    <glyph glyph-name="glyph118" unicode="&#57368;" d="M64 -32c-35 0 -64 29 -64 64v384c0 35 29 64 64 64h384c35 0 64 -29 64 -64v-384c0 -35 -29 -64 -64 -64h-384zM43 11h128v64h-128v-64zM43 96h128v64h-128v-64zM43 182h128v64h-128v-64zM43 267h128v64h-128v-64zM43 374h426v64h-426v-64zM192 11h128v64h-128v-64z M192 96h128v64h-128v-64zM192 182h128v64h-128v-64zM192 267h128v64h-128v-64zM341 11h128v64h-128v-64zM341 96h128v64h-128v-64zM341 182h128v64h-128v-64zM341 267h128v64h-128v-64z"/>
    <glyph glyph-name="glyph119" unicode="&#57369;" d="M38 -28l145 146h146l145 -146h-436zM38 9v255l127 -128zM256 483l218 -219h-36l-28 -27l-117 118l-182 -128l-37 37h-36zM347 136l127 128v-255z"/>
    <glyph glyph-name="glyph120" unicode="&#57370;" d="M38 -33l145 146h146l145 -146h-436zM38 4v255l127 -128zM38 259l218 218l218 -218h-36l-127 -128h-110l-127 128h-36zM347 131l127 128v-255z"/>
    <glyph glyph-name="glyph121" unicode="&#57371;" d="M38 -30l145 146h146l145 -146h-436zM38 7v255l127 -128zM38 262l218 219l218 -219h-36l-127 -128h-110l-127 128h-36zM168 298c-3 0 -4 -3 -2 -5l87 -104c2 -2 4 -3 6 0l87 104c2 2 1 5 -2 5h-51v84c0 5 -4 7 -9 7h-56c-5 0 -9 -2 -9 -7v-84h-51zM347 134l127 128v-255z "/>
    <glyph glyph-name="glyph122" unicode="&#57372;" d="M31 -34l150 151h150l150 -151h-450zM31 4v263l131 -132zM31 267l225 226l225 -226h-37l-132 -132h-112l-132 132h-37zM164 292c-2 -2 -2 -6 1 -6h53v-86c0 -5 4 -8 9 -8h58c5 0 9 3 9 8v86h53c3 0 3 4 1 6l-89 107c-2 2 -5 4 -7 1zM350 135l131 132v-263z"/>
    <glyph glyph-name="glyph123" unicode="&#57373;" d="M13 19l119 120l86 -86l86 86l119 -120h-410zM13 53v205l102 -102zM13 293h295c7 -30 23 -53 48 -68l-138 -137zM320 156l59 58c14 -5 28 -7 44 -7v-154zM337 326c0 35 19 63 43 76c13 7 27 10 43 10c34 0 60 -19 74 -42c8 -13 12 -29 12 -44c0 -34 -20 -59 -43 -73 c-13 -8 -28 -11 -43 -11c-35 0 -60 16 -74 39c-8 13 -12 27 -12 45zM381 344c-5 0 -9 -4 -9 -9v-17c0 -5 4 -8 9 -8h25v-26c0 -5 3 -9 8 -9h18c5 0 8 4 8 9v26h25c5 0 9 3 9 8v17c0 5 -4 9 -9 9h-25v26c0 5 -3 8 -8 8h-18c-5 0 -8 -3 -8 -8v-26h-25z"/>
    <glyph glyph-name="glyph124" unicode="&#57374;" d="M12 19l120 120l85 -86l86 86l119 -120h-410zM12 53v205l103 -102zM12 293h295c7 -30 23 -53 48 -68l-138 -137zM320 156l58 58c14 -5 28 -7 44 -7v-154zM337 326c0 42 21 70 52 81c10 4 21 5 33 5c26 0 47 -12 61 -26s25 -37 25 -63c0 -34 -20 -58 -43 -71 c-13 -7 -28 -10 -43 -10c-40 0 -66 19 -78 48c-5 11 -7 22 -7 36zM380 344c-5 0 -9 -4 -9 -9v-17c0 -5 4 -8 9 -8h85c5 0 8 3 8 8v17c0 5 -3 9 -8 9h-85z"/>
    <glyph glyph-name="glyph125" unicode="&#57375;" d="M4 12l124 124l88 -88l88 88l124 -124h-424zM4 48v212l106 -106zM4 295h305c7 -31 23 -54 49 -70l-142 -142zM322 154l60 60c14 -5 29 -7 46 -7v-159zM341 330c0 36 20 61 44 75c13 7 27 12 43 12c35 0 62 -20 76 -43c7 -13 12 -28 12 -44c0 -35 -21 -61 -44 -75 c-13 -7 -28 -13 -44 -13c-35 0 -62 21 -76 44c-7 13 -11 28 -11 44zM363 330c0 -12 3 -24 10 -35l90 90c-11 7 -23 10 -35 10c-36 0 -65 -29 -65 -65zM428 264c36 0 66 30 66 66c0 12 -3 24 -10 35l-90 -91c11 -7 22 -10 34 -10z"/>
    <glyph glyph-name="glyph126" unicode="&#57376;" d="M5 36v226l112 -113zM6 -1l131 132l94 -95l93 95l133 -132h-451zM361 272c0 -19 13 -35 26 -42l-156 -156l-225 226h355v-28zM343 149l77 77c17 4 31 18 35 35l1 1v-226zM409 262c-5 0 -10 5 -10 10v159h103c5 0 10 -5 10 -10v-56c0 -6 -5 -10 -9 -12l-85 -35v-46 c0 -5 -4 -10 -9 -10z"/>
    <glyph glyph-name="glyph127" unicode="&#57377;" d="M-2 6l127 128l92 -92l91 92l127 -128h-437zM-2 42v219l110 -110zM326 263c0 -21 17 -36 37 -38l-146 -146l-219 218h328v-34zM326 151l72 73h37v-182zM365 261c-2 0 -2 0 -2 2v103c0 2 0 4 2 4h16v46c0 14 11 26 25 26h57c13 0 27 -13 27 -26v-46h14c2 0 4 -2 4 -4v-103 c0 -2 -2 -2 -4 -2h-139zM407 425c-6 0 -9 -3 -9 -9v-46h74v46c0 6 -3 9 -9 9h-56z"/>
    <glyph glyph-name="glyph128" unicode="&#57378;" d="M4 -2l127 128l92 -92l91 92l127 -128h-437zM4 34v219l109 -110zM4 289h334c9 -24 24 -43 46 -57l-161 -161zM332 143l78 78c10 -3 20 -5 31 -5v-182zM369 314v22c0 2 1 8 3 8h34l-22 20l-2 1s0 1 1 2l15 15c2 2 3 2 5 0l20 -22v34c0 2 5 5 7 5h22c2 0 7 -3 7 -5v-34 l21 22c2 2 2 2 3 1l15 -15c1 -2 1 -2 0 -4l-22 -20h34c2 0 4 -6 4 -8v-22c0 -2 -2 -7 -4 -7h-34l22 -20c1 -2 2 -3 1 -4l-15 -15c-2 -2 -2 -2 -4 0l-21 22v-34c0 -2 -5 -3 -7 -3h-22c-2 0 -7 1 -7 3v34l-20 -22c-1 -1 -3 -2 -4 -1l-15 16c-2 2 -2 2 0 4l22 20h-34 c-2 0 -3 5 -3 7z"/>
    <glyph glyph-name="glyph129" unicode="&#57379;" d="M11 -32c-6 0 -11 5 -11 11c0 151 1 227 1 228l79 242c2 5 8 10 14 10h324c7 0 12 -4 14 -9l79 -243l1 -228c0 -6 -5 -11 -11 -11h-490zM62 203h87l43 -107h128l43 107h87l-65 192h-258z"/>
    <glyph glyph-name="glyph130" unicode="&#57380;" d="M14 -27c-5 0 -10 5 -10 10l1 200l70 214c2 4 7 8 12 8h199v-56h-170l-57 -169h77l38 -94h112l38 94h77l-26 75h57l22 -72c0 -1 1 -67 1 -200c0 -5 -4 -10 -9 -10h-432zM418 293c-58 0 -94 36 -94 94c0 39 21 68 47 82c14 8 29 11 47 11c38 0 66 -20 81 -46 c9 -14 13 -30 13 -47c0 -38 -21 -67 -47 -82c-14 -9 -30 -12 -47 -12zM371 405c-5 0 -10 -4 -10 -9v-19c0 -5 5 -9 10 -9h28v-29c0 -5 5 -8 10 -8h18c5 0 10 3 10 8v29h28c5 0 9 4 9 9v19c0 5 -4 9 -9 9h-28v29c0 5 -5 9 -10 9h-18c-5 0 -10 -4 -10 -9v-29h-28z"/>
    <glyph glyph-name="glyph131" unicode="&#57381;" d="M15 -27c-5 0 -10 5 -10 10c0 133 1 200 1 201l69 213c2 4 8 9 13 9h199v-57h-170l-57 -169h76l38 -94h113l38 94h76l-25 75h56l23 -71l1 -201c0 -5 -5 -10 -10 -10h-431zM382 474c11 4 23 7 36 7c28 0 52 -14 67 -30s27 -40 27 -68c0 -37 -20 -65 -46 -79 c-14 -8 -31 -11 -48 -11c-44 0 -73 22 -86 54c-5 12 -7 25 -7 40c0 47 23 75 57 87zM371 406c-5 0 -9 -5 -9 -10v-19c0 -5 4 -9 9 -9h95c5 0 8 4 8 9v19c0 5 -3 10 -8 10h-95z"/>
    <glyph glyph-name="glyph132" unicode="&#57382;" d="M38 -29c-5 0 -9 5 -9 10c0 129 1 193 1 194l67 207c2 4 7 8 12 8h193v-54h-165l-55 -164h74l37 -91h109l37 91h74l-25 73h55l22 -70l1 -194c0 -5 -4 -10 -9 -10h-419zM360 299c-2 0 -3 2 -3 4v103c0 2 1 2 3 2h15v47c0 14 12 27 26 27h56c13 0 27 -14 27 -27v-47h15 c2 0 4 0 4 -2v-103c0 -2 -2 -4 -4 -4h-139zM401 463c-6 0 -8 -2 -8 -8v-47h73v47c0 6 -3 8 -9 8h-56z"/>
    <glyph glyph-name="glyph133" unicode="&#57383;" d="M11 -32c-6 0 -11 5 -11 11c0 151 1 227 1 228l79 242c2 5 8 10 14 10h98v-64h-65l-65 -192h87l43 -107h128l43 107h87l-65 192h-65v64h98c7 0 12 -4 14 -9l79 -243l1 -228c0 -6 -5 -11 -11 -11h-490zM288 523c6 0 11 -5 11 -11v-138h60c3 0 5 -5 3 -7l-102 -122 c-1 -1 -2 -2 -3 -2c-2 0 -3 1 -4 3l-102 121c-2 2 -1 7 2 7h60v138c0 6 5 11 11 11h64z"/>
    <glyph glyph-name="glyph134" unicode="&#57384;" d="M26 -32c-6 0 -10 4 -10 10v210c0 2 1 3 1 4l74 227c2 5 7 10 13 10h56l-44 -61h20l-62 -180h82l40 -100h120l40 100h82l-62 180h20l-45 61h57c7 0 11 -4 13 -9l74 -228l1 -4v-210c0 -6 -4 -10 -10 -10h-460zM226 229c-6 0 -10 -2 -10 4v135h-57c-3 0 -4 2 -2 4l96 114 c1 1 2 1 4 1c1 0 2 -1 3 -2l95 -113c2 -2 1 -4 -2 -4h-57v-135c0 -6 -4 -4 -10 -4h-60z"/>
    <glyph glyph-name="glyph135" unicode="&#57385;" d="M0 225c0 9 0 20 2 33l68 17c4 16 10 31 19 46l-36 60c14 17 30 32 47 46l59 -35c15 9 30 15 46 19l17 67c13 2 24 2 33 2s20 0 33 -2l17 -67c16 -4 31 -10 46 -19l59 35c17 -14 34 -29 47 -46l-36 -60c8 -14 14 -29 19 -46l68 -17c2 -11 2 -22 2 -33s0 -21 -2 -32 l-68 -17c-4 -16 -11 -32 -19 -47l36 -59c-14 -17 -30 -32 -47 -46l-59 35c-14 -8 -29 -14 -46 -19l-17 -67c-11 -2 -22 -2 -33 -2s-22 0 -33 2l-17 67c-17 5 -32 11 -46 19l-59 -35c-17 13 -33 29 -47 46l36 59c-9 15 -15 31 -19 47l-68 17c-2 13 -2 23 -2 32zM255 315 c-49 0 -89 -41 -89 -90s40 -89 89 -89s89 40 89 89s-40 90 -89 90z"/>
    <glyph glyph-name="glyph136" unicode="&#57386;" d="M1 223c0 8 0 16 1 24l47 12c3 11 8 21 14 32l-25 42c10 12 21 23 33 33l42 -26c11 6 21 11 32 14l12 48c8 1 16 1 24 1s15 0 23 -1l11 -48c11 -3 22 -8 33 -14l42 26c12 -10 23 -21 33 -33l-25 -42c6 -11 10 -21 13 -32l47 -12c1 -8 2 -16 2 -24s-1 -15 -2 -23l-47 -12 c-3 -11 -7 -21 -13 -32l25 -42c-10 -12 -21 -23 -33 -33l-42 25c-11 -6 -22 -10 -33 -13l-11 -47c-8 -1 -15 -3 -23 -3s-16 2 -24 3l-12 47c-11 3 -21 7 -32 13l-42 -25c-12 10 -23 21 -33 33l25 42c-6 11 -11 21 -14 32l-47 12c-1 8 -1 15 -1 23zM181 286 c-35 0 -63 -28 -63 -63s28 -62 63 -62s62 27 62 62s-27 63 -62 63zM335 89c0 4 0 7 1 11l23 6c1 5 3 10 6 15l-12 20c5 6 10 11 16 16l20 -12c5 3 10 5 16 6l5 24c5 1 9 0 12 0c4 0 6 1 10 0l7 -24c6 -1 10 -3 15 -6l20 12c6 -5 12 -10 16 -16l-13 -20c3 -4 6 -9 7 -15 l23 -6c1 -4 1 -8 1 -11c0 -4 0 -7 -1 -11l-23 -6c-1 -6 -4 -11 -7 -15l13 -21c-5 -6 -10 -11 -16 -15l-20 12c-5 -3 -9 -5 -15 -7l-7 -23c-5 -1 -7 0 -10 0c-4 0 -8 -1 -12 0l-5 23c-5 2 -12 3 -16 7l-20 -12c-6 5 -12 9 -16 15l12 21c-3 5 -4 9 -6 15l-23 6 c-1 4 -1 7 -1 11zM422 121c-18 0 -33 -14 -33 -32s15 -32 33 -32s32 14 32 32s-14 32 -32 32z"/>
    <glyph glyph-name="glyph137" unicode="&#57387;" d="M493 452c11 0 19 -9 19 -19v-432c0 -10 -8 -19 -19 -19h-474c-10 0 -19 9 -19 19v432c0 10 9 19 19 19h474zM469 409h-426v-314l105 77l127 -56l-31 67l125 136l100 -123v213zM146 360c32 0 57 -26 57 -58s-25 -57 -57 -57s-57 25 -57 57s25 58 57 58z"/>
    <glyph glyph-name="glyph138" unicode="&#57388;" d="M43 75c-12 0 -22 9 -22 21v64c0 12 10 22 22 22h21v298h64v-298h21c12 0 22 -10 22 -22v-64c0 -12 -10 -21 -22 -21h-106zM43 118h106v10h-106v-10zM64 -32v86h64v-86h-64zM213 182c-12 0 -21 9 -21 21v64c0 12 9 21 21 21h22v192h64v-192h21c12 0 21 -9 21 -21v-64 c0 -12 -9 -21 -21 -21h-107zM213 224h107v11h-107v-11zM235 -32v192h64v-192h-64zM384 288c-12 0 -21 10 -21 22v64c0 12 9 21 21 21h21v85h64v-85h22c12 0 21 -9 21 -21v-64c0 -12 -9 -22 -21 -22h-107zM384 331h107v11h-107v-11zM405 -32v299h64v-299h-64z"/>
    <glyph glyph-name="glyph139" unicode="&#57389;" d="M147 42c48 0 103 4 134 23c2 -3 2 -4 2 -6v-54c0 -7 -6 -12 -18 -18c-28 -13 -74 -19 -118 -19s-91 6 -119 19c-12 6 -18 11 -18 18v54c0 2 1 3 3 6c31 -19 86 -23 134 -23zM147 132c48 0 103 6 134 25c2 -3 2 -4 2 -6v-55c0 -7 -6 -13 -18 -19c-28 -13 -74 -18 -118 -18 s-91 5 -119 18c-12 6 -18 12 -18 19v55c0 2 1 3 3 6c31 -19 86 -25 134 -25zM147 223c48 0 103 5 134 24c2 -3 2 -4 2 -6v-54c0 -7 -6 -12 -18 -18c-28 -13 -74 -18 -118 -18s-91 5 -119 18c-12 6 -18 11 -18 18v54c0 2 1 3 3 6c31 -19 86 -24 134 -24zM10 278v54 c0 7 6 12 18 18c28 13 75 19 119 19s90 -6 118 -19c12 -6 18 -11 18 -18v-54c0 -7 -6 -12 -18 -18c-28 -13 -74 -19 -118 -19s-91 6 -119 19c-12 6 -18 11 -18 18zM88 342c0 -3 6 -6 17 -9s26 -3 42 -3s31 0 42 3s17 6 17 9s-6 5 -17 8s-26 4 -42 4s-31 -1 -42 -4 s-17 -5 -17 -8zM341 296c-2 0 -3 1 -3 3v103c0 2 1 3 3 3h15v47c0 14 12 26 26 26h57c13 0 26 -13 26 -26v-47h15c2 0 4 -1 4 -3v-103c0 -2 -2 -3 -4 -3h-139zM382 460c-6 0 -7 -2 -7 -8v-47h72v47c0 6 -2 8 -8 8h-57z"/>
    <glyph glyph-name="glyph140" unicode="&#57390;" d="M146 49c49 0 106 5 138 24c2 -3 3 -4 3 -6v-56c0 -7 -7 -13 -19 -19c-29 -13 -77 -19 -122 -19s-94 6 -123 19c-12 6 -18 12 -18 19v56c0 2 1 3 3 6c32 -19 89 -24 138 -24zM146 142c49 0 106 7 138 26c2 -3 3 -5 3 -7v-56c0 -7 -7 -13 -19 -19c-29 -13 -77 -19 -122 -19 s-94 6 -123 19c-12 6 -18 12 -18 19v56c0 2 1 4 3 7c32 -19 89 -26 138 -26zM146 236c49 0 106 6 138 25c2 -3 3 -4 3 -6v-57c0 -7 -7 -12 -19 -18c-29 -13 -77 -19 -122 -19s-94 6 -123 19c-12 6 -18 11 -18 18v57c0 2 1 3 3 6c32 -19 89 -25 138 -25zM5 293v56 c0 7 6 13 18 19c29 13 78 19 123 19s93 -6 122 -19c12 -6 19 -12 19 -19v-56c0 -7 -7 -13 -19 -19c-29 -13 -77 -19 -122 -19s-94 6 -123 19c-12 6 -18 12 -18 19zM85 359c0 -4 7 -6 18 -9s26 -4 43 -4s32 1 43 4s18 5 18 9s-7 6 -18 9s-26 3 -43 3s-32 0 -43 -3 s-18 -5 -18 -9zM325 387c0 39 20 68 46 82c14 8 29 11 47 11c38 0 67 -20 82 -46c9 -14 12 -30 12 -47c0 -38 -20 -67 -46 -82c-14 -9 -31 -12 -48 -12c-39 0 -66 17 -81 43c-9 14 -12 32 -12 51zM371 405c-5 0 -9 -4 -9 -9v-19c0 -5 4 -9 9 -9h29v-29c0 -5 4 -8 9 -8h19 c5 0 9 3 9 8v29h29c5 0 8 4 8 9v19c0 5 -3 9 -8 9h-29v29c0 5 -4 9 -9 9h-19c-5 0 -9 -4 -9 -9v-29h-29z"/>
    <glyph glyph-name="glyph141" unicode="&#57391;" d="M147 50c49 0 106 5 138 24c2 -3 3 -4 3 -6v-56c0 -7 -7 -13 -19 -19c-29 -13 -77 -19 -122 -19s-94 6 -123 19c-12 6 -18 12 -18 19v56c0 2 0 3 2 6c32 -19 90 -24 139 -24zM147 143c49 0 106 6 138 25c2 -3 3 -4 3 -6v-56c0 -7 -7 -14 -19 -20c-29 -13 -77 -18 -122 -18 s-94 5 -123 18c-12 6 -18 13 -18 20v56c0 2 0 3 2 6c32 -19 90 -25 139 -25zM147 237c49 0 106 6 138 25c2 -3 3 -4 3 -6v-57c0 -7 -7 -12 -19 -18c-29 -13 -77 -19 -122 -19s-94 6 -123 19c-12 6 -18 11 -18 18v57c0 2 0 3 2 6c32 -19 90 -25 139 -25zM6 293v57 c0 7 6 12 18 18c29 13 78 20 123 20s93 -7 122 -20c12 -6 19 -11 19 -18v-57c0 -7 -7 -12 -19 -18c-29 -13 -77 -19 -122 -19s-94 6 -123 19c-12 6 -18 11 -18 18zM86 360c0 -4 7 -6 18 -9s26 -4 43 -4s32 1 43 4s17 5 17 9s-6 5 -17 8s-26 4 -43 4s-32 -1 -43 -4 s-18 -4 -18 -8zM325 388c0 47 24 75 58 87c11 4 23 6 36 6c28 0 52 -13 67 -29s27 -41 27 -69c0 -37 -21 -64 -47 -78c-14 -8 -30 -12 -47 -12c-44 0 -73 22 -86 54c-5 12 -8 26 -8 41zM372 406c-5 0 -10 -4 -10 -9v-19c0 -5 5 -10 10 -10h94c5 0 9 5 9 10v19c0 5 -4 9 -9 9 h-94z"/>
    <glyph glyph-name="glyph142" unicode="&#57392;" d="M155 50c49 0 106 5 138 24c2 -3 3 -4 3 -6v-56c0 -7 -7 -13 -19 -19c-29 -13 -77 -19 -122 -19s-93 6 -122 19c-12 6 -19 12 -19 19v56c0 2 1 3 3 6c32 -19 89 -24 138 -24zM155 143c49 0 106 7 138 26c2 -3 3 -5 3 -7v-56c0 -7 -7 -13 -19 -19c-29 -13 -77 -19 -122 -19 s-93 6 -122 19c-12 6 -19 12 -19 19v56c0 2 1 4 3 7c32 -19 89 -26 138 -26zM155 237c49 0 106 6 138 25c2 -3 3 -4 3 -6v-57c0 -7 -7 -12 -19 -18c-29 -13 -77 -19 -122 -19s-93 6 -122 19c-12 6 -19 11 -19 18v57c0 2 1 3 3 6c32 -19 89 -25 138 -25zM14 294v56 c0 7 7 13 19 19c29 13 77 19 122 19s93 -6 122 -19c12 -6 19 -12 19 -19v-56c0 -7 -7 -13 -19 -19c-29 -13 -77 -19 -122 -19s-93 6 -122 19c-12 6 -19 12 -19 19zM94 360c0 -4 7 -6 18 -9s26 -4 43 -4s32 1 43 4s18 5 18 9s-7 5 -18 8s-26 3 -43 3s-32 0 -43 -3 s-18 -4 -18 -8zM316 389c0 38 21 65 47 80c14 8 29 12 46 12c37 0 66 -20 81 -45c8 -14 13 -30 13 -47c0 -38 -21 -66 -47 -81c-14 -8 -30 -13 -47 -13c-37 0 -66 22 -81 47c-8 14 -12 30 -12 47zM409 458c-38 0 -69 -31 -69 -69c0 -13 3 -26 10 -37l96 96 c-11 7 -24 10 -37 10zM409 318c38 0 70 33 70 71c0 13 -4 26 -11 37l-96 -96c11 -7 24 -12 37 -12z"/>
    <glyph glyph-name="glyph143" unicode="&#57393;" d="M347 361c10 0 17 -7 17 -17v-51h-265c-8 0 -14 -4 -17 -12l-77 -192v255c0 10 7 17 17 17h23l6 18c3 8 12 16 22 16h86c10 0 19 -8 22 -16l7 -18h159zM11 35l90 225c3 8 13 15 23 15h377c9 0 14 -5 10 -15l-90 -225c-3 -8 -13 -16 -23 -16h-376c-9 0 -15 6 -11 16z"/>
    <glyph glyph-name="glyph144" unicode="&#57394;" d="M20 12c-10 0 -17 9 -17 19v246c0 10 7 18 17 18h302c20 -31 55 -53 104 -53v-211c0 -10 -7 -19 -17 -19h-389zM20 348c0 10 8 17 18 17h24l6 19c3 8 12 17 23 17h88c11 0 20 -9 23 -17l7 -19h94c0 -19 3 -37 10 -53h-293v36zM426 277c-53 0 -88 34 -88 88 c0 53 35 89 88 89c36 0 62 -20 76 -44c8 -13 12 -29 12 -45c0 -36 -19 -62 -43 -76c-13 -8 -29 -12 -45 -12zM382 383c-5 0 -9 -4 -9 -9v-18c0 -5 4 -8 9 -8h27v-26c0 -5 3 -10 8 -10h18c5 0 8 5 8 10v26h27c5 0 9 3 9 8v18c0 5 -4 9 -9 9h-27v26c0 5 -3 9 -8 9h-18 c-5 0 -8 -4 -8 -9v-26h-27z"/>
    <glyph glyph-name="glyph145" unicode="&#57395;" d="M15 12c-10 0 -17 9 -17 19v246c0 10 7 18 17 18h302c20 -31 55 -53 104 -53v-211c0 -10 -7 -19 -17 -19h-389zM15 348c0 10 8 17 18 17h24l6 19c3 8 12 17 23 17h88c11 0 20 -9 23 -17l7 -19h94c0 -19 3 -37 10 -53h-293v36zM421 277c-54 0 -88 34 -88 88 c0 44 21 71 53 83c11 4 23 6 35 6c26 0 49 -13 63 -28s25 -38 25 -64c0 -35 -19 -61 -43 -74c-13 -7 -29 -11 -45 -11zM377 383c-5 0 -9 -4 -9 -9v-18c0 -5 4 -8 9 -8h88c5 0 9 3 9 8v18c0 5 -4 9 -9 9h-88z"/>
    <glyph glyph-name="glyph146" unicode="&#57396;" d="M22 6c-10 0 -18 8 -18 18v255c0 10 8 18 18 18h310c2 -20 18 -36 39 -36h70v-237c0 -10 -8 -18 -18 -18h-401zM41 370h24l7 19c3 9 13 18 24 18h90c11 0 21 -9 24 -18l7 -19h115v-55h-310v37c0 10 9 18 19 18zM371 297c-2 0 -2 1 -2 3v103c0 2 0 4 2 4h16v46 c0 14 11 26 25 26h57c13 0 27 -13 27 -26v-46h14c2 0 4 -2 4 -4v-103c0 -2 -2 -3 -4 -3h-139zM413 461c-6 0 -9 -2 -9 -8v-46h74v46c0 6 -3 8 -9 8h-56z"/>
    <glyph glyph-name="glyph147" unicode="&#57397;" d="M16 -1c-11 0 -18 8 -18 19v262c0 11 7 20 18 20h339c4 -20 23 -38 47 -38s42 18 46 38v-282c0 -11 -7 -19 -18 -19h-414zM35 375h25l7 19c4 9 14 18 25 18h93c11 0 21 -9 25 -18l7 -19h137v-57h-338v38c0 11 8 19 19 19zM402 300c-5 0 -10 4 -10 9v160h103 c5 0 10 -5 10 -10v-56c0 -6 -5 -11 -9 -13l-85 -34v-47c0 -5 -4 -9 -9 -9z"/>
    <glyph glyph-name="glyph148" unicode="&#57398;" d="M15 6c-10 0 -17 8 -17 18v255c0 10 7 18 17 18h338c18 -20 45 -36 81 -36v-237c0 -10 -7 -18 -17 -18h-402zM15 352c0 10 9 18 19 18h24l7 19c3 9 13 18 24 18h90c11 0 21 -9 24 -18l7 -19h115c0 -20 5 -38 15 -55h-325v37zM362 359v21c0 2 1 8 3 8h34l-22 20l-1 2 s-1 1 0 2l16 15c2 2 2 2 4 0l21 -22v34c0 2 4 3 6 3h23c2 0 6 -1 6 -3v-34l21 22c2 2 2 1 3 0l16 -14c1 -2 1 -3 0 -5l-23 -20h35c2 0 3 -6 3 -8v-21c0 -2 -1 -7 -3 -7h-35l23 -20c1 -2 1 -3 0 -4l-15 -15c-2 -2 -2 -2 -4 0l-21 21v-33c0 -2 -4 -4 -6 -4h-23c-2 0 -6 2 -6 4 v33l-21 -22c-1 -1 -2 -1 -3 0l-16 15c-2 2 -2 3 0 5l22 20h-34c-2 0 -3 5 -3 7z"/>
    <glyph glyph-name="glyph149" unicode="&#57399;" d="M85 -32c-47 0 -85 39 -85 86v213c0 47 38 85 85 85h214c8 0 15 -1 24 -4l-38 -38h-221c-12 0 -21 -10 -21 -22v-256c0 -12 9 -21 21 -21h256c12 0 21 9 21 21v93l43 43v-114c0 -47 -38 -86 -85 -86h-214zM147 58l35 89l60 -60l-88 -35c-6 -2 -9 0 -7 6zM201 167l194 194 l62 -62l-195 -194zM413 379l31 31c2 2 5 4 8 4s6 -2 8 -4l46 -46c2 -2 3 -5 3 -8s-1 -5 -3 -7l-31 -31z"/>
    <glyph glyph-name="glyph150" unicode="&#57400;" d="M78 -16c-44 0 -79 36 -79 80v200c0 44 35 80 79 80h110c-25 -10 -47 -23 -67 -39h-62c-11 0 -20 -10 -20 -21v-240c0 -11 9 -20 20 -20h240c11 0 20 9 20 20v25l40 30v-35c0 -44 -36 -80 -80 -80h-201zM299 415c0 6 3 6 8 3l198 -148c2 -2 3 -4 3 -6s-1 -3 -3 -5 l-198 -149c-5 -4 -8 -2 -8 4v94c-16 1 -36 -1 -53 -1c-22 0 -44 -5 -64 -9c-47 -10 -86 -35 -103 -75c1 94 48 147 112 178c32 16 66 25 108 29v85z"/>
    <glyph glyph-name="glyph151" unicode="&#57401;" d="M107 -32c-47 0 -86 39 -86 86v213c0 47 39 85 86 85h213c10 0 20 -1 30 -5l-37 -37h-228c-12 0 -21 -10 -21 -22v-256c0 -12 9 -21 21 -21h256c12 0 22 9 22 21v58l42 42v-78c0 -47 -38 -86 -85 -86h-213zM110 183c0 3 1 6 3 8l50 50c2 2 5 3 8 3s5 -1 7 -3l61 -61 c2 -2 5 -3 8 -3s5 1 7 3l169 169c2 2 5 4 8 4s6 -2 8 -4l50 -49c2 -2 3 -5 3 -8s-1 -5 -3 -7l-235 -235c-2 -2 -4 -3 -7 -3s-6 1 -8 3l-126 126c-2 2 -3 4 -3 7z"/>
    <glyph glyph-name="glyph152" unicode="&#57402;" d="M107 -32c-47 0 -86 39 -86 86v213c0 47 39 85 86 85h213c47 0 85 -38 85 -85v-213c0 -47 -38 -86 -85 -86h-213zM85 310c-12 0 -21 -10 -21 -22v-256c0 -12 9 -21 21 -21h256c12 0 22 9 22 21v256c0 12 -10 22 -22 22h-256z"/>
    <glyph glyph-name="glyph153" unicode="&#57403;" d="M85 75c-47 0 -85 38 -85 85v214c0 47 38 85 85 85h214c47 0 85 -38 85 -85h-43v21c0 12 -9 21 -21 21h-256c-12 0 -21 -9 -21 -21v-256c0 -12 9 -21 21 -21h21v-43zM192 -32c-47 0 -85 39 -85 86v213c0 47 38 85 85 85h213c47 0 86 -38 86 -85v-213 c0 -47 -39 -86 -86 -86h-213zM171 310c-12 0 -22 -10 -22 -22v-256c0 -12 10 -21 22 -21h256c12 0 21 9 21 21v256c0 12 -9 22 -21 22h-256z"/>
    <glyph glyph-name="glyph154" unicode="&#57404;" d="M32 -10c-6 0 -11 4 -11 10v192c0 6 5 11 11 11h192c6 0 11 -5 11 -11v-192c0 -6 -5 -10 -11 -10h-192zM32 246c-6 0 -11 4 -11 10v192c0 6 5 11 11 11h192c6 0 11 -5 11 -11v-192c0 -6 -5 -10 -11 -10h-192zM288 -10c-6 0 -11 4 -11 10v192c0 6 5 11 11 11h192 c6 0 11 -5 11 -11v-192c0 -6 -5 -10 -11 -10h-192zM288 246c-6 0 -11 4 -11 10v192c0 6 5 11 11 11h192c6 0 11 -5 11 -11v-192c0 -6 -5 -10 -11 -10h-192z"/>
    <glyph glyph-name="glyph155" unicode="&#57405;" d="M32 -10c-6 0 -11 4 -11 10v107c0 6 5 11 11 11h107c6 0 10 -5 10 -11v-107c0 -6 -4 -10 -10 -10h-107zM32 160c-6 0 -11 5 -11 11v107c0 6 5 10 11 10h107c6 0 10 -4 10 -10v-107c0 -6 -4 -11 -10 -11h-107zM32 331c-6 0 -11 5 -11 11v106c0 6 5 11 11 11h107 c6 0 10 -5 10 -11v-106c0 -6 -4 -11 -10 -11h-107zM203 -10c-6 0 -11 4 -11 10v107c0 6 5 11 11 11h106c6 0 11 -5 11 -11v-107c0 -6 -5 -10 -11 -10h-106zM203 160c-6 0 -11 5 -11 11v107c0 6 5 10 11 10h106c6 0 11 -4 11 -10v-107c0 -6 -5 -11 -11 -11h-106zM203 331 c-6 0 -11 5 -11 11v106c0 6 5 11 11 11h106c6 0 11 -5 11 -11v-106c0 -6 -5 -11 -11 -11h-106zM373 -10c-6 0 -10 4 -10 10v107c0 6 4 11 10 11h107c6 0 11 -5 11 -11v-107c0 -6 -5 -10 -11 -10h-107zM373 160c-6 0 -10 5 -10 11v107c0 6 4 10 10 10h107c6 0 11 -4 11 -10 v-107c0 -6 -5 -11 -11 -11h-107zM373 331c-6 0 -10 5 -10 11v106c0 6 4 11 10 11h107c6 0 11 -5 11 -11v-106c0 -6 -5 -11 -11 -11h-107z"/>
    <glyph glyph-name="glyph156" unicode="&#57406;" d="M11 54c-6 0 -11 4 -11 10v43c0 6 5 11 11 11h42c6 0 11 -5 11 -11v-43c0 -6 -5 -10 -11 -10h-42zM11 182c-6 0 -11 4 -11 10v43c0 6 5 11 11 11h42c6 0 11 -5 11 -11v-43c0 -6 -5 -10 -11 -10h-42zM11 310c-6 0 -11 4 -11 10v43c0 6 5 11 11 11h42c6 0 11 -5 11 -11v-43 c0 -6 -5 -10 -11 -10h-42zM117 54c-6 0 -10 4 -10 10v43c0 6 4 11 10 11h384c6 0 11 -5 11 -11v-43c0 -6 -5 -10 -11 -10h-384zM117 182c-6 0 -10 4 -10 10v43c0 6 4 11 10 11h384c6 0 11 -5 11 -11v-43c0 -6 -5 -10 -11 -10h-384zM117 310c-6 0 -10 4 -10 10v43 c0 6 4 11 10 11h384c6 0 11 -5 11 -11v-43c0 -6 -5 -10 -11 -10h-384z"/>
    <glyph glyph-name="glyph157" unicode="&#57407;" d="M11 54c-6 0 -11 4 -11 10v43c0 6 5 11 11 11h490c6 0 11 -5 11 -11v-43c0 -6 -5 -10 -11 -10h-490zM11 182c-6 0 -11 4 -11 10v43c0 6 5 11 11 11h490c6 0 11 -5 11 -11v-43c0 -6 -5 -10 -11 -10h-490zM11 310c-6 0 -11 4 -11 10v43c0 6 5 11 11 11h490c6 0 11 -5 11 -11 v-43c0 -6 -5 -10 -11 -10h-490z"/>
    <glyph glyph-name="glyph158" unicode="&#57408;" d="M12 92v35c0 5 4 9 9 9h179c-16 -16 -25 -34 -28 -53h-151c-5 0 -9 4 -9 9zM21 189c-5 0 -9 4 -9 9v35c0 5 4 9 9 9h273v-53h-273zM12 303v36c0 5 4 9 9 9h273v-53h-273c-5 0 -9 3 -9 8zM383 92c-3 -32 -36 -56 -66 -66c-44 -14 -90 -1 -100 31c-3 10 -2 20 2 31 c13 33 51 55 96 57c7 0 12 0 15 -2v282c0 6 5 11 11 11h31c6 0 11 -5 11 -11v-9c12 -7 35 -15 51 -20c28 -10 62 -24 69 -54c12 -42 -11 -75 -34 -93c-2 -2 -18 -11 -20 -8c-1 2 4 4 5 6c10 15 19 46 6 67c-14 22 -53 18 -77 30v-252z"/>
    <glyph glyph-name="glyph159" unicode="&#57409;" d="M33 49c-16 0 -29 12 -29 28v312c0 15 14 30 29 30h446c15 0 29 -15 29 -30v-312c0 -16 -13 -28 -29 -28h-165v-19c0 -24 16 -33 40 -33c3 0 7 1 11 1c5 0 6 -7 0 -7h-217c-5 0 -5 7 0 7c3 0 7 -1 10 -1c23 0 40 9 40 33v19h-165zM42 147h428v232h-428v-232z"/>
    <glyph glyph-name="glyph160" unicode="&#57410;" d="M18 92c-5 0 -9 4 -9 9v9c0 5 4 8 9 8h44v212c0 10 8 18 18 18h352c10 0 18 -8 18 -18v-212h44c5 0 9 -3 9 -8v-9c0 -5 -4 -9 -9 -9l-9 -9h-458zM97 118h318v194h-318v-194z"/>
    <glyph glyph-name="glyph161" unicode="&#57411;" d="M87 -28c-20 0 -38 18 -38 38v431c0 20 18 38 38 38h338c20 0 38 -18 38 -38v-431c0 -20 -18 -38 -38 -38h-338zM105 28h302v395h-302v-395zM256 22c-12 0 -22 -10 -22 -22s10 -22 22 -22s22 10 22 22s-10 22 -22 22z"/>
    <glyph glyph-name="glyph162" unicode="&#57412;" d="M160 -32c-29 0 -53 25 -53 54v405c0 29 24 53 53 53h192c29 0 53 -24 53 -53v-405c0 -29 -24 -54 -53 -54h-192zM149 75h214v320h-214v-320zM256 59c-21 0 -38 -16 -38 -37s17 -38 38 -38s38 17 38 38s-17 37 -38 37z"/>
    <glyph glyph-name="glyph163" unicode="&#57413;" d="M45 12c-24 0 -45 21 -45 45v335c0 24 21 44 45 44h159c24 0 43 -20 43 -44v-47c-19 -2 -35 -18 -35 -38v58h-176v-264h176v40c0 -20 16 -36 35 -38v-46c0 -24 -19 -45 -43 -45h-159zM124 88c-17 0 -31 -14 -31 -31s14 -31 31 -31s31 14 31 31s-14 31 -31 31zM168 189 c-5 0 -9 4 -9 9v52c0 5 4 10 9 10h79v47c0 2 3 4 5 2l100 -82c2 -2 2 -3 0 -5l-99 -83c-2 -2 -6 0 -6 2v48h-79zM309 12c-24 0 -44 21 -44 45v49c0 2 10 5 11 6l24 20v-31h176v264h-176v-49c-23 17 -35 25 -35 26v50c0 24 20 44 44 44h159c24 0 44 -20 44 -44v-335 c0 -24 -20 -45 -44 -45h-159zM389 88c-17 0 -32 -14 -32 -31s15 -31 32 -31s30 14 30 31s-13 31 -30 31z"/>
    <glyph glyph-name="glyph164" unicode="&#57414;" d="M45 12c-24 0 -44 21 -44 45v335c0 24 20 44 44 44h159c24 0 44 -20 44 -44v-97h-36v70h-176v-264h176v53h36v-97c0 -24 -20 -45 -44 -45h-159zM73 222c-2 2 -2 3 0 5l99 82c2 2 5 0 5 -2v-47h159v47c0 2 3 4 5 2l99 -82c2 -2 2 -3 0 -5l-99 -83c-2 -2 -5 0 -5 2v48h-159 v-48c0 -2 -3 -4 -5 -2zM125 88c-17 0 -32 -14 -32 -31s15 -31 32 -31s30 14 30 31s-13 31 -30 31zM310 12c-24 0 -45 21 -45 45v97h36v-53h176v264h-176v-70h-36v97c0 24 21 44 45 44h158c24 0 44 -20 44 -44v-335c0 -24 -20 -45 -44 -45h-158zM389 88 c-17 0 -31 -14 -31 -31s14 -31 31 -31s31 14 31 31s-14 31 -31 31z"/>
    <glyph glyph-name="glyph165" unicode="&#57415;" d="M136 -10c-16 0 -29 13 -29 29v411c0 16 13 29 29 29h240c16 0 29 -13 29 -29v-411c0 -16 -13 -29 -29 -29h-240zM149 288h214v128h-214v-128zM256 215c-48 0 -87 -40 -87 -88s39 -87 87 -87s87 39 87 87s-39 88 -87 88zM256 93c-19 0 -34 15 -34 34s15 34 34 34 s34 -15 34 -34s-15 -34 -34 -34z"/>
    <glyph glyph-name="glyph166" unicode="&#57416;" d="M107 75v277h320v-277h-320zM267 318c-57 0 -105 -47 -105 -104s48 -105 105 -105s104 48 104 105s-47 104 -104 104zM267 153c-33 0 -61 28 -61 61s28 61 61 61s60 -28 60 -61s-27 -61 -60 -61z"/>
    <glyph glyph-name="glyph167" unicode="&#57417;" d="M106 295c-34 12 -63 45 -63 89c0 52 44 96 96 96s96 -44 96 -96c0 -45 -30 -78 -64 -90v-70h-43v64c0 42 -23 77 -41 102c-6 9 -12 15 -16 20l-7 6v-64c19 -11 39 -30 42 -57zM107 96v107h64v-107h-22v-128h-21v128h-21zM340 231c-34 12 -63 45 -63 89c0 52 44 96 96 96 s96 -44 96 -96c0 -45 -30 -78 -64 -90v-70h-42v64c0 42 -24 77 -42 102c-6 9 -12 15 -16 20l-6 6v-64c19 -11 38 -29 41 -57zM341 32v107h64v-107h-21v-64h-21v64h-22z"/>
    <glyph glyph-name="glyph168" unicode="&#57418;" d="M47 224c0 63 28 115 61 148s85 61 148 61s115 -28 148 -61s61 -85 61 -148s-28 -115 -61 -148s-85 -61 -148 -61s-115 28 -148 61s-61 85 -61 148zM100 224c0 -63 36 -110 78 -135c24 -14 50 -21 78 -21c47 0 86 21 111 46s45 63 45 110s-20 86 -45 111s-64 46 -111 46 c-63 0 -110 -36 -135 -78c-14 -24 -21 -51 -21 -79zM256 143c-45 0 -81 36 -81 81s36 81 81 81s81 -36 81 -81s-36 -81 -81 -81z"/>
    <glyph glyph-name="glyph169" unicode="&#57419;" d="M117 32c-6 0 -10 5 -10 11v363c0 6 4 10 10 10h43c6 0 11 -4 11 -10v-165l223 173c5 3 11 2 11 -4v-371c0 -6 -6 -8 -11 -4l-223 174v-166c0 -6 -5 -11 -11 -11h-43z"/>
    <glyph glyph-name="glyph170" unicode="&#57420;" d="M11 32c-6 0 -11 5 -11 11v363c0 6 5 10 11 10h42c6 0 11 -4 11 -10v-165l223 173c5 3 12 2 12 -4v-169l223 173c5 3 11 2 11 -4v-371c0 -6 -6 -8 -11 -4l-223 174v-170c0 -6 -7 -8 -12 -4l-223 174v-166c0 -6 -5 -11 -11 -11h-42z"/>
    <glyph glyph-name="glyph171" unicode="&#57421;" d="M10 218c-4 3 -6 9 -1 13l235 183c5 3 12 2 12 -4v-169l223 173c5 3 12 2 12 -4v-371c0 -6 -7 -8 -12 -4l-223 174v-170c0 -6 -7 -8 -12 -4z"/>
    <glyph glyph-name="glyph172" unicode="&#57422;" d="M107 50v349c0 6 5 8 9 4l329 -172c5 -4 4 -9 0 -13l-329 -172c-5 -3 -9 -2 -9 4z"/>
    <glyph glyph-name="glyph173" unicode="&#57423;" d="M160 54c-6 0 -11 4 -11 10v320c0 6 5 11 11 11h64c6 0 11 -5 11 -11v-320c0 -6 -5 -10 -11 -10h-64zM288 54c-6 0 -11 4 -11 10v320c0 6 5 11 11 11h64c6 0 11 -5 11 -11v-320c0 -6 -5 -10 -11 -10h-64z"/>
    <glyph glyph-name="glyph174" unicode="&#57424;" d="M117 75c-6 0 -10 5 -10 11v277c0 6 4 11 10 11h278c6 0 10 -5 10 -11v-277c0 -6 -4 -11 -10 -11h-278z"/>
    <glyph glyph-name="glyph175" unicode="&#57425;" d="M21 39v371c0 6 7 7 12 4l223 -173v169c0 6 7 7 12 4l235 -183c5 -4 3 -10 -1 -13l-234 -183c-5 -4 -12 -2 -12 4v170l-223 -174c-5 -4 -12 -2 -12 4z"/>
    <glyph glyph-name="glyph176" unicode="&#57426;" d="M459 32c-6 0 -11 5 -11 11v166l-223 -174c-5 -4 -12 -2 -12 4v170l-223 -174c-5 -4 -11 -2 -11 4v371c0 6 6 7 11 4l223 -173v169c0 6 7 7 12 4l223 -173v165c0 6 5 10 11 10h42c6 0 11 -4 11 -10v-363c0 -6 -5 -11 -11 -11h-42z"/>
    <glyph glyph-name="glyph177" unicode="&#57427;" d="M352 32c-6 0 -11 5 -11 11v166l-223 -174c-5 -4 -11 -2 -11 4v371c0 6 6 7 11 4l223 -173v165c0 6 5 10 11 10h43c6 0 10 -4 10 -10v-363c0 -6 -4 -11 -10 -11h-43z"/>
    <glyph glyph-name="glyph178" unicode="&#57428;" d="M75 54c-6 0 -11 4 -11 10v43c0 6 5 11 11 11h362c6 0 11 -5 11 -11v-43c0 -6 -5 -10 -11 -10h-362zM70 160c-6 0 -7 10 -4 15l184 237c4 5 9 3 13 -1l183 -236c3 -4 2 -15 -4 -15h-372z"/>
    <glyph glyph-name="glyph179" unicode="&#57429;" d="M32 54c-17 0 -32 15 -32 32v277c0 17 15 32 32 32h299c17 0 32 -15 32 -32v-120l141 113c4 3 8 2 8 -4v-256c0 -6 -4 -7 -8 -3l-141 113v-120c0 -17 -15 -32 -32 -32h-299z"/>
    <glyph glyph-name="glyph180" unicode="&#57430;" d="M21 -32c-12 0 -21 10 -21 22v128h64v-43h182l-158 183c-3 4 -1 9 4 9h100v203c0 5 5 10 11 10h107c5 0 10 -4 10 -10v-203h102c5 0 6 -5 3 -9l-157 -183h180v43h64v-128c0 -12 -9 -22 -21 -22h-470z"/>
    <glyph glyph-name="glyph181" unicode="&#57431;" d="M11 182c-6 0 -11 4 -11 10v85c0 6 5 11 11 11h72c6 0 15 4 19 7l103 97c4 4 8 3 8 -3v-309c0 -6 -3 -7 -7 -3l-103 97c-4 3 -12 8 -18 8h-74zM256 151c0 3 2 5 4 7l65 66l-65 65c-2 2 -4 4 -4 7s2 6 4 8l23 23c2 2 4 3 7 3s6 -1 8 -3l65 -65l65 65c2 2 5 3 8 3s5 -1 7 -3 l23 -23c2 -2 3 -5 3 -8s-1 -6 -3 -8l-65 -64l65 -66c2 -2 3 -4 3 -7s-1 -6 -3 -8l-23 -23c-2 -2 -4 -3 -7 -3s-6 1 -8 3l-65 65l-65 -65c-2 -2 -5 -3 -8 -3s-5 1 -7 3l-23 23c-2 2 -4 5 -4 8z"/>
    <glyph glyph-name="glyph182" unicode="&#57432;" d="M11 182c-6 0 -11 4 -11 10v85c0 6 5 11 11 11h72c6 0 15 4 19 7l103 97c4 4 8 3 8 -3v-309c0 -6 -3 -7 -7 -3l-103 97c-4 3 -12 8 -18 8h-74zM293 224c0 53 -20 96 -46 127l34 26c31 -37 55 -89 55 -153c0 -62 -23 -112 -52 -149l-33 28c28 36 42 76 42 121z"/>
    <glyph glyph-name="glyph183" unicode="&#57433;" d="M11 182c-6 0 -11 4 -11 10v85c0 6 5 11 11 11h72c6 0 15 4 19 7l103 97c4 4 8 3 8 -3v-309c0 -6 -3 -7 -7 -3l-103 97c-4 3 -12 8 -18 8h-74zM293 224c0 53 -20 96 -46 127l34 26c31 -37 55 -89 55 -153c0 -62 -23 -112 -52 -149l-33 28c28 36 42 76 42 121zM379 224 c0 75 -28 135 -64 179l34 26c41 -51 72 -120 72 -205s-31 -153 -71 -203l-33 27c35 44 62 103 62 176zM464 224c0 96 -35 174 -81 231l33 26c51 -63 91 -150 91 -257s-40 -193 -91 -257l-33 27c46 57 81 134 81 230z"/>
    <glyph glyph-name="glyph184" unicode="&#57434;" d="M-11 224c-6 0 -10 5 -10 11s4 11 10 11h118c3 42 23 78 47 102s59 43 102 46v118c0 6 5 11 11 11s10 -5 10 -11v-118c57 -4 102 -36 126 -76c14 -22 21 -46 23 -72h118c6 0 11 -5 11 -11s-5 -11 -11 -11h-118c-3 -58 -36 -102 -76 -126c-22 -14 -47 -21 -73 -23v-117 c0 -6 -4 -11 -10 -11s-11 5 -11 11v117c-43 3 -79 23 -103 47s-43 59 -46 102h-118zM128 224c6 -67 61 -122 128 -128v107h21v-107c49 4 87 32 108 66c12 19 18 40 20 62h-106v22h106c-6 67 -61 122 -128 127v-106h-21v106c-67 -5 -122 -60 -127 -127h106v-22h-107z"/>
    <glyph glyph-name="glyph185" unicode="&#57435;" d="M4 224c0 3 1 6 3 8l92 92c4 4 8 2 8 -4v-53h106v107h-53c-6 0 -7 3 -3 7l92 92c2 2 4 3 7 3s5 -1 7 -3l92 -91c4 -4 3 -8 -3 -8h-53v-107h106v53c0 6 4 8 8 4l92 -92c2 -2 3 -5 3 -8s-1 -5 -3 -7l-92 -92c-4 -4 -8 -3 -8 3v54h-106v-107h53c6 0 7 -3 3 -7l-92 -92 c-2 -2 -4 -3 -7 -3s-5 1 -7 3l-92 92c-4 4 -3 7 3 7h53v107h-106v-54c0 -6 -4 -7 -8 -3l-92 92c-2 2 -3 4 -3 7z"/>
    <glyph glyph-name="glyph186" unicode="&#57436;" d="M85 160c-34 0 -62 28 -62 62s28 61 62 61s62 -27 62 -61s-28 -62 -62 -62zM255 160c-34 0 -61 28 -61 62s27 61 61 61s62 -27 62 -61s-28 -62 -62 -62zM426 160c-34 0 -62 28 -62 62s28 61 62 61s61 -27 61 -61s-27 -62 -61 -62z"/>
    <glyph glyph-name="glyph187" unicode="&#57437;" d="M43 224c0 6 0 14 1 22h62c-1 -8 -1 -15 -1 -22s0 -13 1 -21h-62c-1 8 -1 15 -1 21zM91 90l44 44c9 -11 19 -22 30 -31l-44 -43c-12 10 -21 19 -30 30zM91 359c9 11 19 21 30 30l44 -44c-11 -9 -21 -19 -30 -30zM256 139c-47 0 -85 38 -85 85s38 86 85 86s85 -39 85 -86 s-38 -85 -85 -85zM256 266c-23 0 -42 -19 -42 -42s19 -41 42 -41s42 18 42 41s-19 42 -42 42zM235 13v62c8 -1 14 -2 21 -2s13 1 21 2v-62c-8 -1 -15 -2 -21 -2s-13 1 -21 2zM235 374v62c8 1 15 1 21 1s13 0 21 -1v-62c-8 1 -14 2 -21 2s-13 -1 -21 -2zM347 103 c11 9 21 20 30 31l44 -44c-9 -11 -19 -21 -30 -30zM347 345l44 44c11 -9 20 -18 30 -30l-44 -44c-9 11 -19 21 -30 30zM406 203c1 8 1 14 1 21s0 14 -1 22h62c1 -8 1 -16 1 -22s0 -13 -1 -21h-62z"/>
    <glyph glyph-name="glyph188" unicode="&#57438;" d="M0 224c0 6 0 14 1 22h80c-1 -7 -1 -15 -1 -22s0 -14 1 -21h-80c-1 8 -1 15 -1 21zM61 59l57 57c9 -11 19 -21 30 -30l-57 -57c-11 9 -21 19 -30 30zM61 389c9 11 19 21 30 30l57 -56c-11 -9 -21 -19 -30 -30zM128 224c0 52 29 91 64 111c20 11 41 17 64 17 c52 0 91 -28 111 -63c11 -20 17 -42 17 -65c0 -52 -29 -90 -64 -110c-20 -11 -41 -18 -64 -18c-52 0 -91 29 -111 64c-11 20 -17 41 -17 64zM256 308c-46 0 -83 -38 -83 -84s37 -83 83 -83s83 37 83 83s-37 84 -83 84zM235 -30v80c8 -1 15 -2 21 -2s13 1 21 2v-80 c-8 -1 -15 -1 -21 -1s-13 0 -21 1zM235 399v80c8 1 15 1 21 1s13 0 21 -1v-80c-7 1 -14 1 -21 1s-14 0 -21 -1zM364 86c11 9 21 19 30 30l57 -57c-9 -11 -19 -21 -30 -30zM364 363l57 56c11 -9 21 -19 30 -30l-57 -56c-9 11 -19 21 -30 30zM431 203c1 8 1 15 1 21 s0 14 -1 22h80c1 -8 1 -16 1 -22s0 -13 -1 -21h-80z"/>
    <glyph glyph-name="glyph189" unicode="&#57439;" d="M-5 224c0 52 15 97 35 132c33 57 87 101 157 120c23 6 45 10 69 10c78 0 144 -36 185 -77s76 -107 76 -185s-35 -144 -76 -185s-107 -76 -185 -76c-52 0 -98 16 -132 36c-57 33 -101 86 -120 156c-6 23 -9 45 -9 69zM116 267c-6 0 -11 -4 -11 -10v-65c0 -6 5 -11 11 -11 h97v-98c0 -6 5 -11 11 -11h64c6 0 11 5 11 11v98h97c6 0 11 5 11 11v65c0 6 -5 10 -11 10h-97v98c0 6 -5 11 -11 11h-64c-6 0 -11 -5 -11 -11v-98h-97z"/>
    <glyph glyph-name="glyph190" unicode="&#57440;" d="M-5 224c0 52 15 98 35 132c33 57 87 101 157 120c23 6 45 10 69 10c52 0 97 -16 132 -36c57 -33 101 -86 120 -156c6 -23 9 -46 9 -70c0 -78 -35 -144 -76 -185s-107 -76 -185 -76c-52 0 -98 16 -132 36c-57 33 -101 86 -120 156c-6 23 -9 45 -9 69zM139 267 c-6 0 -11 -5 -11 -11v-64c0 -6 5 -10 11 -10h234c6 0 11 4 11 10v64c0 6 -5 11 -11 11h-234z"/>
    <glyph glyph-name="glyph191" unicode="&#57441;" d="M-6 224c0 78 35 143 77 185s107 77 185 77s143 -35 185 -77s77 -107 77 -185s-35 -142 -77 -184s-107 -77 -185 -77s-143 35 -185 77s-77 106 -77 184zM132 157c0 -3 1 -6 3 -8l46 -45c2 -2 4 -3 7 -3s6 1 8 3l60 60l60 -60c2 -2 5 -3 8 -3s6 1 8 3l45 45c2 2 3 5 3 8 s-1 5 -3 7l-61 60l61 61c2 2 3 4 3 7s-1 6 -3 8l-45 45c-2 2 -5 3 -8 3s-6 -1 -8 -3l-60 -60l-60 60c-2 2 -5 3 -8 3s-5 -1 -7 -3l-46 -45c-2 -2 -3 -5 -3 -8s1 -5 3 -7l61 -61l-61 -60c-2 -2 -3 -4 -3 -7z"/>
    <glyph glyph-name="glyph192" unicode="&#57442;" d="M-6 224c0 78 35 143 77 185s107 77 185 77s143 -35 185 -77s77 -107 77 -185s-35 -142 -77 -184s-107 -77 -185 -77s-143 35 -185 77s-77 106 -77 184zM103 222c0 -2 1 -4 2 -5l110 -110c1 -1 3 -2 5 -2s4 1 5 2l182 182c1 1 2 3 2 5s-1 4 -2 5l-46 45c-1 1 -3 2 -5 2 s-4 -1 -5 -2l-126 -126c-1 -1 -3 -2 -5 -2s-4 1 -5 2l-55 55c-1 1 -3 2 -5 2s-3 -1 -4 -2l-46 -46c-1 -1 -2 -3 -2 -5z"/>
    <glyph glyph-name="glyph193" unicode="&#57443;" d="M-5 224c0 52 15 98 35 132c33 57 87 101 157 120c23 6 45 10 69 10c52 0 97 -16 132 -36c57 -33 101 -86 120 -156c6 -23 9 -46 9 -70c0 -78 -35 -144 -76 -185s-107 -76 -185 -76c-52 0 -98 16 -132 36c-57 33 -101 86 -120 156c-6 23 -9 45 -9 69zM257 375 c-62 0 -101 -34 -104 -92c0 -3 3 -5 6 -5h57c3 0 5 2 5 5c1 21 14 32 36 32c15 0 26 -10 26 -25s-12 -24 -21 -30c-25 -18 -38 -39 -38 -62v-22c0 -1 4 -5 5 -5h55c3 0 5 2 5 5c1 29 9 39 28 52c13 8 17 11 26 20c10 10 12 24 12 44c0 44 -29 68 -63 78c-11 3 -23 5 -35 5z M224 139c-6 0 -11 -5 -11 -11v-64c0 -6 5 -10 11 -10h65c6 0 11 4 11 10v64c0 6 -5 11 -11 11h-65z"/>
    <glyph glyph-name="glyph194" unicode="&#57444;" d="M-5 224c0 52 15 98 35 132c33 57 87 101 157 120c23 6 45 10 69 10c52 0 97 -16 132 -36c57 -33 101 -86 120 -156c6 -23 9 -46 9 -70c0 -78 -35 -144 -76 -185s-107 -76 -185 -76c-52 0 -98 16 -132 36c-57 33 -101 86 -120 156c-6 23 -9 45 -9 69zM203 139 c-6 0 -11 -5 -11 -11v-42c0 -6 5 -11 11 -11h128c6 0 10 5 10 11v42c0 6 -4 11 -10 11h-32v139c0 6 -5 10 -11 10h-85c-6 0 -11 -4 -11 -10v-43c0 -6 5 -11 11 -11h32v-85h-32zM245 374c-6 0 -10 -5 -10 -11v-43c0 -6 4 -10 10 -10h43c6 0 11 4 11 10v43c0 6 -5 11 -11 11 h-43z"/>
    <glyph glyph-name="glyph195" unicode="&#57445;" d="M-5 224c0 52 15 98 35 132c33 57 87 101 157 120c23 6 45 10 69 10c52 0 97 -16 132 -36c57 -33 101 -86 120 -156c6 -23 9 -46 9 -70c0 -78 -35 -144 -76 -185s-107 -76 -185 -76c-52 0 -98 16 -132 36c-57 33 -101 86 -120 156c-6 23 -9 45 -9 69zM224 139 c-6 0 -11 -5 -11 -11v-64c0 -6 5 -10 11 -10h64c6 0 11 4 11 10v64c0 6 -5 11 -11 11h-64zM224 395c-6 0 -11 -5 -11 -11v-85c0 -10 1 -18 2 -24l20 -99c1 -5 7 -16 13 -16h17c6 0 11 11 12 16l20 102c1 6 2 13 2 21v85c0 6 -5 11 -11 11h-64z"/>
    <glyph glyph-name="glyph196" unicode="&#57446;" d="M-5 224c0 82 34 143 76 185c31 31 69 54 116 67c23 6 45 10 69 10c52 0 98 -16 132 -36c38 -22 72 -56 94 -94c20 -34 35 -80 35 -132s-15 -98 -35 -132c-33 -57 -87 -101 -157 -120c-23 -6 -45 -9 -69 -9c-82 0 -143 35 -185 77c-31 31 -54 68 -67 115 c-6 23 -9 45 -9 69zM64 224c0 -57 26 -105 56 -135s78 -57 136 -57c57 0 106 27 136 57s56 78 56 135s-26 106 -56 136s-78 56 -136 56c-57 0 -106 -26 -136 -56s-56 -78 -56 -136zM132 293c0 3 2 5 4 7l44 45c2 2 5 3 8 3s5 -1 7 -3l61 -61l61 61c2 2 4 3 7 3s6 -1 8 -3 l45 -45c2 -2 3 -5 3 -8s-1 -5 -3 -7l-61 -61l60 -60c2 -2 4 -5 4 -8s-2 -5 -4 -7l-44 -45c-2 -2 -5 -3 -8 -3s-5 1 -7 3l-61 61l-61 -61c-2 -2 -4 -3 -7 -3s-6 1 -8 3l-44 45c-2 2 -3 4 -3 7s1 6 3 8l60 60l-60 61c-2 2 -4 5 -4 8z"/>
    <glyph glyph-name="glyph197" unicode="&#57447;" d="M-5 224c0 82 34 143 76 185c31 31 69 54 116 67c23 6 45 10 69 10c52 0 98 -16 132 -36c38 -22 72 -56 94 -94c20 -34 35 -80 35 -132s-15 -98 -35 -132c-33 -57 -87 -101 -157 -120c-23 -6 -45 -9 -69 -9c-82 0 -143 35 -185 77c-31 31 -54 68 -67 115 c-6 23 -9 45 -9 69zM64 224c0 -57 26 -105 56 -135s78 -57 136 -57c57 0 106 27 136 57s56 78 56 135s-26 106 -56 136s-78 56 -136 56c-57 0 -106 -26 -136 -56s-56 -78 -56 -136zM124 201c0 2 1 4 2 5l46 45c1 1 3 2 5 2s4 -1 5 -2l33 -33c1 -1 3 -2 5 -2s4 1 5 2l105 104 c1 1 2 2 4 2s4 -1 5 -2l46 -45c1 -1 2 -3 2 -5s-1 -4 -2 -5l-160 -160c-1 -1 -3 -2 -5 -2s-4 1 -5 2c-18 19 -37 37 -55 56l-34 33c-1 1 -2 3 -2 5z"/>
    <glyph glyph-name="glyph198" unicode="&#57448;" d="M-5 224c0 82 34 143 76 185c31 31 69 54 116 67c23 6 45 10 69 10c52 0 98 -16 132 -36c38 -22 72 -56 94 -94c20 -34 35 -80 35 -132s-15 -98 -35 -132c-33 -57 -87 -101 -157 -120c-23 -6 -45 -9 -69 -9c-82 0 -143 35 -185 77c-31 31 -54 68 -67 115 c-6 23 -9 45 -9 69zM64 224c0 -37 10 -71 30 -102l264 265c-31 20 -65 29 -102 29c-57 0 -106 -26 -136 -56s-56 -78 -56 -136zM154 62c31 -20 65 -30 102 -30c57 0 106 27 136 57s56 78 56 135c0 37 -10 72 -30 103z"/>
    <glyph glyph-name="glyph199" unicode="&#57449;" d="M-5 224c0 82 34 143 76 185c31 31 69 54 116 67c23 6 45 10 69 10c52 0 98 -16 132 -36c38 -22 72 -56 94 -94c20 -34 35 -80 35 -132s-15 -98 -35 -132c-33 -57 -87 -101 -157 -120c-23 -6 -45 -9 -69 -9c-82 0 -143 35 -185 77c-31 31 -54 68 -67 115 c-6 23 -9 45 -9 69zM64 224c0 -57 26 -105 56 -135s78 -57 136 -57c57 0 106 27 136 57s56 78 56 135s-26 106 -56 136s-78 56 -136 56c-57 0 -106 -26 -136 -56s-56 -78 -56 -136zM309 352c6 0 11 -5 11 -11v-95h57c4 0 5 -6 3 -9l-120 -159c-3 -3 -7 -2 -9 1l-121 158 c-3 3 -1 9 3 9h59v95c0 6 5 11 11 11h106z"/>
    <glyph glyph-name="glyph200" unicode="&#57450;" d="M-5 224c0 82 34 143 76 185c31 31 69 54 116 67c23 6 45 10 69 10c52 0 98 -16 132 -36c38 -22 72 -56 94 -94c20 -34 35 -80 35 -132s-15 -98 -35 -132c-33 -57 -87 -101 -157 -120c-23 -6 -45 -9 -69 -9c-82 0 -143 35 -185 77c-31 31 -54 68 -67 115 c-6 23 -9 45 -9 69zM64 224c0 -57 26 -105 56 -135s78 -57 136 -57c57 0 106 27 136 57s56 78 56 135s-26 106 -56 136s-78 56 -136 56c-57 0 -106 -26 -136 -56s-56 -78 -56 -136zM203 97c-6 0 -11 5 -11 11v95h-59c-4 0 -6 6 -3 9l121 158c2 3 6 3 9 0l120 -158 c2 -3 1 -9 -3 -9h-57v-95c0 -6 -5 -11 -11 -11h-106z"/>
    <glyph glyph-name="glyph201" unicode="&#57451;" d="M72 44c0 11 9 20 20 20h244l19 80h-293c-10 0 -18 8 -20 16l-40 180c-3 13 8 25 20 25h385l16 65c2 8 10 15 19 15h50c11 0 21 -9 21 -20s-10 -21 -21 -21h-34l-86 -360c-2 -8 -10 -20 -20 -20h-21c1 -4 1 -7 1 -10c0 -16 -14 -30 -30 -30s-30 14 -30 30c0 3 1 6 2 10 h-104c1 -3 2 -6 2 -10c0 -16 -14 -30 -30 -30s-30 14 -30 30c0 3 1 6 2 10h-22c-11 0 -20 9 -20 20zM47 324l4 -19h21v19h-25zM56 284l4 -20h12v20h-16zM65 245l4 -21h3v21h-7zM92 185h20v19h-20v-19zM92 224h20v21h-20v-21zM92 264h20v20h-20v-20zM92 305h20v19h-20v-19z M132 185h20v19h-20v-19zM132 224h20v21h-20v-21zM132 264h20v20h-20v-20zM132 305h20v19h-20v-19zM172 185h20v19h-20v-19zM172 224h20v21h-20v-21zM172 264h20v20h-20v-20zM172 305h20v19h-20v-19zM212 185h20v19h-20v-19zM212 224h20v21h-20v-21zM212 264h20v20h-20v-20z M212 305h20v19h-20v-19zM252 185h20v19h-20v-19zM252 224h20v21h-20v-21zM252 264h20v20h-20v-20zM252 305h20v19h-20v-19zM292 185h20v19h-20v-19zM292 224h20v21h-20v-21zM292 264h20v20h-20v-20zM292 305h20v19h-20v-19zM332 185h20v19h-20v-19zM332 224h20v21h-20v-21z M332 264h20v20h-20v-20zM332 305h20v19h-20v-19zM372 224h2l5 21h-7v-21zM384 264l5 20h-17v-20h12zM372 305h20l5 19h-25v-19z"/>
    <glyph glyph-name="glyph202" unicode="&#57452;" d="M55 -25c-6 0 -13 6 -13 12v268c0 6 7 11 13 11h26v97c0 34 18 63 36 81s47 35 80 35h99c33 0 62 -17 80 -35s35 -47 35 -81v-97h26c6 0 13 -5 13 -11v-268c0 -6 -7 -12 -13 -12h-382zM198 402c-26 0 -39 -12 -39 -39v-97h174v97c0 27 -12 39 -38 39h-97zM208 156 c0 -15 9 -28 19 -34v-50c0 -5 5 -10 10 -10h19c5 0 10 5 10 10v50c10 6 19 19 19 34c0 21 -18 38 -39 38s-38 -17 -38 -38z"/>
    <glyph glyph-name="glyph203" unicode="&#57453;" d="M35 -32c-7 0 -14 6 -14 13v295c0 7 7 12 14 12h306v107c0 30 -13 43 -42 43h-107c-29 0 -43 -13 -43 -43v-21h-85v21c0 37 19 69 39 89s52 39 88 39h109c36 0 68 -19 88 -39s39 -52 39 -89v-107h28c7 0 14 -5 14 -12v-295c0 -7 -7 -13 -14 -13h-420zM245 209 c-23 0 -42 -19 -42 -42c0 -17 10 -30 21 -37v-55c0 -6 5 -11 11 -11h21c6 0 11 5 11 11v55c11 7 21 20 21 37c0 23 -20 42 -43 42z"/>
    <glyph glyph-name="glyph204" unicode="&#57454;" d="M150 256l71 214c2 5 7 10 14 10h141c5 0 9 -3 6 -9l-87 -152c-3 -6 1 -10 6 -10l54 1c5 0 9 -4 6 -10l-52 -131c-3 -6 1 -9 6 -9h32c6 0 8 -4 4 -9l-136 -180c-3 -4 -5 -5 -4 2l28 134c1 6 -4 11 -9 11h-31c-5 0 -10 4 -8 10l28 107c1 6 -3 11 -8 11h-54c-6 0 -9 4 -7 10 z"/>
    <glyph glyph-name="glyph205" unicode="&#57455;" d="M-4 198c0 3 1 6 3 8l70 69c2 2 4 3 7 3s6 -1 8 -3l83 -83c2 -2 5 -4 8 -4s5 2 7 4l224 223c2 2 5 4 8 4s5 -2 7 -4l70 -68c2 -2 3 -5 3 -8s-1 -6 -3 -8l-309 -308c-2 -2 -4 -3 -7 -3s-6 1 -8 3l-168 167c-2 2 -3 5 -3 8z"/>
    <glyph glyph-name="glyph206" unicode="&#57456;" d="M64 95c0 3 2 7 4 9l120 120l-120 121c-2 2 -4 6 -4 9s2 6 4 8l50 51c2 2 6 3 9 3s6 -1 8 -3l121 -121l121 121c2 2 5 3 8 3s7 -1 9 -3l51 -51c2 -2 3 -5 3 -8s-1 -7 -3 -9l-121 -121l121 -120c2 -2 3 -6 3 -9s-1 -6 -3 -8l-51 -51c-2 -2 -6 -4 -9 -4s-6 2 -8 4l-121 120 l-120 -120c-2 -2 -6 -4 -9 -4s-7 2 -9 4l-50 51c-2 2 -4 5 -4 8z"/>
    <glyph glyph-name="glyph207" unicode="&#57457;" d="M64 32c0 12 9 22 21 22h261l20 85h-313c-11 0 -19 8 -21 17l-42 192c0 2 -1 3 -1 4c0 12 11 22 22 22h74c-4 -5 -5 -11 -5 -17c0 -18 11 -26 30 -26h18v-21h21v-22h-21v-21h149v64h22v-21h21v21c14 1 28 9 28 25c0 5 -2 12 -7 18h81l16 69c2 9 10 16 21 16h53 c12 0 21 -9 21 -21s-9 -22 -21 -22h-36l-93 -384c-2 -9 -9 -21 -20 -21h-24c1 -4 2 -8 2 -11c0 -17 -15 -32 -32 -32s-32 15 -32 32c0 3 1 7 2 11h-110c1 -4 2 -8 2 -11c0 -17 -15 -32 -32 -32s-32 15 -32 32c0 3 1 7 2 11h-24c-12 0 -21 9 -21 21zM37 331l5 -21h22v21h-27z M47 288l4 -21h13v21h-17zM56 246l5 -22h3v22h-8zM85 182h22v21h-22v-21zM85 224h22v22h-22v-22zM85 267h22v21h-22v-21zM85 310h22v21h-22v-21zM181 288c-6 0 -10 5 -10 11v53h-61c-2 0 -3 1 -3 3c0 1 0 2 1 3l102 121c1 1 2 2 3 2c2 0 3 -1 4 -2l102 -121c1 -1 1 -2 1 -3 c0 -2 -1 -3 -3 -3h-61v-53c0 -6 -5 -11 -11 -11h-64zM128 182h21v21h-21v-21zM128 224h21v22h-21v-22zM171 182h21v21h-21v-21zM171 224h21v22h-21v-22zM213 182h22v21h-22v-21zM213 224h22v22h-22v-22zM256 182h21v21h-21v-21zM256 224h21v22h-21v-22zM299 182h21v21h-21 v-21zM299 224h21v22h-21v-22zM299 267h21v21h-21v-21zM341 182h22v21h-22v-21zM341 224h22v22h-22v-22zM341 267h22v21h-22v-21zM341 310h22v21h-22v-21zM384 224h2l5 22h-7v-22zM384 267h12l4 14l1 7h-17v-21zM384 310h22l5 21h-27v-21z"/>
    <glyph glyph-name="glyph208" unicode="&#57458;" d="M64 32c0 12 9 22 21 22h261l20 85h-313c-11 0 -19 8 -21 17l-42 192c0 2 -1 3 -1 4c0 12 11 22 22 22h80l37 -44v-20h17l26 -31v-12h10c9 -11 18 -17 33 -17c14 0 25 7 31 15l11 13v-11h21v21h-12l34 42v-20h21v21h-20l35 43h87l16 69c2 9 11 16 21 16h53 c12 0 21 -9 21 -21s-9 -22 -21 -22h-36l-93 -384c-2 -9 -9 -21 -20 -21h-24c1 -3 2 -7 2 -11c0 -17 -15 -32 -32 -32s-32 15 -32 32c0 3 1 7 2 11h-110c1 -3 2 -7 2 -11c0 -17 -15 -32 -32 -32s-32 15 -32 32c0 3 1 7 2 11h-24c-12 0 -21 9 -21 21zM37 331l5 -21h22v21h-27z M47 288l4 -21h13v21h-17zM56 246l5 -22h3v22h-8zM85 182h22v21h-22v-21zM85 224h22v22h-22v-22zM85 267h22v21h-22v-21zM85 310h22v21h-22v-21zM245 480c6 0 11 -4 11 -10v-54h61c2 0 3 -1 3 -3c0 -1 0 -2 -1 -3l-102 -122c-1 -1 -2 -2 -3 -2c-2 0 -3 0 -4 2l-102 122 c-1 1 -1 2 -1 3c0 3 1 3 3 3h61v54c0 6 4 10 10 10h64zM128 182h21v21h-21v-21zM128 224h21v22h-21v-22zM128 267h21v21h-21v-21zM171 182h21v21h-21v-21zM171 224h21v22h-21v-22zM213 182h22v21h-22v-21zM213 224h22v22h-22v-22zM256 182h21v21h-21v-21zM256 224h21v22h-21 v-22zM299 182h21v21h-21v-21zM299 224h21v22h-21v-22zM299 267h21v21h-21v-21zM341 182h22v21h-22v-21zM341 224h22v22h-22v-22zM341 267h22v21h-22v-21zM341 310h22v21h-22v-21zM384 224h2l5 22h-7v-22zM384 267h12l4 14l1 7h-17v-21zM384 310h22l5 21h-27v-21z"/>
    <glyph glyph-name="glyph209" unicode="&#57459;" d="M469 171c0 -6 -5 -11 -11 -11h-181v-110c0 -6 -3 -7 -8 -4l-223 172c-2 2 -3 3 -3 6s1 5 3 7l223 172c4 4 8 2 8 -4v-111h181c6 0 11 -4 11 -10v-107z"/>
    <glyph glyph-name="glyph210" unicode="&#57460;" d="M54 160c-6 0 -11 5 -11 11v107c0 6 5 10 11 10h181v111c0 6 4 8 8 4l223 -172c2 -2 3 -4 3 -7s-1 -4 -3 -6l-223 -172c-5 -3 -8 -2 -8 4v110h-181z"/>
    <glyph glyph-name="glyph211" unicode="&#57461;" d="M309 438c6 0 11 -5 11 -11v-181h111c6 0 8 -4 4 -9l-172 -222c-2 -2 -4 -4 -7 -4s-4 2 -6 4l-173 222c-4 5 -2 9 4 9h111v181c0 6 5 11 11 11h106z"/>
    <glyph glyph-name="glyph212" unicode="&#57462;" d="M203 11c-6 0 -11 5 -11 11v181h-111c-6 0 -8 5 -4 9l173 222c2 2 3 4 6 4s5 -2 7 -4l172 -222c3 -5 2 -9 -4 -9h-111v-181c0 -6 -5 -11 -11 -11h-106z"/>
    <glyph glyph-name="glyph213" unicode="&#57463;" d="M2 31c0 2 1 3 2 5l88 88l-54 54c-3 3 -1 5 3 6l191 25c4 1 7 -3 7 -7l-25 -192c0 -4 -3 -5 -6 -2l-54 54l-88 -88c-2 -1 -3 -2 -5 -2s-4 1 -5 2l-52 52c-1 2 -2 3 -2 5zM273 247l25 191c1 4 3 6 6 3l54 -54l88 88c2 1 3 2 5 2s4 -1 5 -2l52 -52c1 -1 2 -3 2 -5 s-1 -4 -2 -5l-88 -89l54 -53c3 -3 1 -5 -3 -6l-191 -25c-4 -1 -7 3 -7 7z"/>
    <glyph glyph-name="glyph214" unicode="&#57464;" d="M2 -22l24 192c1 4 4 5 7 2l53 -53l89 87c1 1 3 3 5 3s4 -2 5 -3l52 -51c1 -1 2 -3 2 -5s-1 -5 -2 -6l-88 -88l53 -53c3 -3 2 -6 -2 -7l-192 -24c-4 -1 -7 2 -6 6zM275 294c-3 3 -2 7 1 10l88 89l-54 53c-3 3 -2 5 2 6l192 25c4 1 7 -3 6 -7l-24 -191c-1 -4 -3 -6 -6 -3 l-54 54l-88 -88c-1 -1 -4 -2 -6 -2s-3 1 -5 2z"/>
    <glyph glyph-name="glyph215" unicode="&#57465;" d="M-5 226c0 78 35 143 76 184s106 76 184 76s143 -35 184 -76s76 -106 76 -184s-35 -143 -76 -184s-106 -76 -184 -76s-143 35 -184 76s-76 106 -76 184zM384 256c0 6 -5 11 -11 11h-117v75c0 6 -4 8 -8 4l-137 -113c-2 -2 -3 -4 -3 -7s1 -5 3 -7l137 -114c4 -4 8 -2 8 4 v73h117c6 0 11 4 11 10v64z"/>
    <glyph glyph-name="glyph216" unicode="&#57466;" d="M-5 226c0 78 35 143 76 184s106 76 184 76s143 -35 184 -76s76 -106 76 -184s-35 -143 -76 -184s-106 -76 -184 -76s-143 35 -184 76s-76 106 -76 184zM139 267c-6 0 -11 -5 -11 -11v-64c0 -6 5 -10 11 -10h117v-73c0 -6 3 -7 8 -4l137 114c2 2 3 4 3 7s-1 5 -3 7 l-137 113c-5 3 -8 2 -8 -4v-75h-117z"/>
    <glyph glyph-name="glyph217" unicode="&#57467;" d="M16 226c0 78 35 143 76 184s106 76 184 76s143 -35 184 -76s76 -106 76 -184s-35 -143 -76 -184s-106 -76 -184 -76s-143 35 -184 76s-76 106 -76 184zM309 96c6 0 11 5 11 11v117h75c6 0 8 5 4 9l-115 133c-2 2 -4 3 -7 3s-5 -1 -7 -3l-114 -133c-4 -4 -3 -9 3 -9h76 v-117c0 -6 4 -11 10 -11h64z"/>
    <glyph glyph-name="glyph218" unicode="&#57468;" d="M-5 226c0 78 35 143 76 184s106 76 184 76s143 -35 184 -76s76 -106 76 -184s-35 -143 -76 -184s-106 -76 -184 -76s-143 35 -184 76s-76 106 -76 184zM224 352c-6 0 -11 -4 -11 -10v-118h-75c-6 0 -8 -4 -4 -8l115 -133c2 -2 4 -3 7 -3s5 1 7 3l114 133c4 4 2 8 -4 8 h-74v118c0 6 -5 10 -11 10h-64z"/>
    <glyph glyph-name="glyph219" unicode="&#57469;" d="M-5 224c0 82 34 143 76 185c31 31 69 54 116 67c23 6 45 10 69 10c52 0 98 -16 132 -36c38 -22 72 -56 94 -94c20 -34 35 -80 35 -132s-15 -98 -35 -132c-33 -57 -87 -101 -157 -120c-23 -6 -45 -9 -69 -9c-82 0 -143 35 -185 77c-31 31 -54 68 -67 115 c-6 23 -9 45 -9 69zM64 224c0 -57 26 -105 56 -135s78 -57 136 -57c57 0 106 27 136 57s56 78 56 135s-26 106 -56 136s-78 56 -136 56c-57 0 -106 -26 -136 -56s-56 -78 -56 -136zM192 126v197c0 3 2 4 4 2l165 -97c1 -1 2 -3 2 -4s-1 -2 -2 -3l-165 -97c-2 -2 -4 -1 -4 2z "/>
    <glyph glyph-name="glyph220" unicode="&#57470;" d="M16 225c0 2 1 4 3 6l228 168c5 3 9 2 9 -4v-97c101 -9 180 -51 219 -123c15 -28 25 -68 26 -111c-15 36 -43 59 -79 74c-22 10 -45 14 -71 18c-22 4 -44 3 -68 4h-27v-106c0 -6 -4 -9 -9 -5l-228 169c-2 2 -3 5 -3 7z"/>
    <glyph glyph-name="glyph221" unicode="&#57471;" d="M11 64c2 134 85 203 195 227c20 4 31 5 50 7v97c0 6 4 7 9 4l228 -168c2 -2 3 -4 3 -6s-1 -5 -3 -7l-228 -169c-5 -4 -9 -1 -9 5v106c-18 1 -41 0 -60 0c-24 -1 -49 -5 -71 -10c-25 -5 -49 -17 -68 -29c-20 -13 -36 -34 -46 -57z"/>
    <glyph glyph-name="glyph222" unicode="&#57472;" d="M129 79l146 145l-146 146l79 78l224 -224l-224 -223z"/>
    <glyph glyph-name="glyph223" unicode="&#57473;" d="M81 224l224 224l78 -78l-145 -146l146 -145l-79 -78z"/>
    <glyph glyph-name="glyph224" unicode="&#57474;" d="M111 123l104 101v4l-99 97l36 37l63 -62v175l179 -152l-102 -98l102 -100l-179 -152v180l-69 -67zM267 85l51 43l-51 49v-92zM267 273l50 48l-50 43v-91z"/>
    <glyph glyph-name="glyph225" unicode="&#57475;" d="M305 59c59 0 84 44 90 101h86c-5 -55 -25 -101 -54 -133c-27 -30 -69 -54 -122 -54c-82 0 -132 46 -162 100c-11 20 -20 42 -26 66h-83l17 64h56c0 3 -1 19 0 21h-73l17 64h64c20 96 80 169 190 169c50 0 89 -19 117 -44c31 -27 53 -72 58 -125h-86c-5 41 -44 82 -89 82 c-63 0 -86 -27 -99 -82h144l-17 -64h-137v-21h133l-18 -64h-102c12 -32 31 -61 62 -74c10 -4 22 -6 34 -6z"/>
    <glyph glyph-name="glyph226" unicode="&#57476;" d="M87 139h91c0 -39 19 -64 57 -75v128l-11 3c-68 19 -128 46 -128 133c0 55 26 90 59 112c22 15 48 25 80 28v34h42v-35c91 -10 146 -56 146 -157h-91c-2 31 -8 54 -29 66c-7 4 -15 7 -26 9v-112c11 -1 17 -2 24 -5c19 -6 42 -13 52 -17c57 -24 86 -64 86 -122 c0 -45 -17 -77 -41 -101c-27 -27 -70 -43 -121 -47v-34h-42v35c-43 5 -81 25 -106 50c-24 24 -42 61 -42 107zM235 387c-26 -5 -48 -21 -48 -51c0 -12 4 -22 10 -28s19 -13 38 -19v98zM277 61c40 4 65 16 65 57c0 16 -6 28 -16 37s-27 16 -49 22v-116z"/>
    <glyph glyph-name="glyph227" unicode="&#57477;" d="M352 310c-3 50 -22 81 -69 81c-36 0 -62 -25 -62 -61c0 -10 1 -18 3 -25s10 -26 22 -59h95v-64h-75c2 0 4 -9 4 -28c0 -32 -16 -52 -32 -68c-5 -5 -11 -10 -20 -17l1 -1c15 10 23 15 43 15c31 0 77 -15 100 -15c28 0 39 10 56 28l38 -65c-24 -23 -57 -41 -99 -41 c-25 0 -48 3 -69 11c-20 7 -36 12 -63 12s-52 -8 -73 -25l-40 59c48 31 72 66 72 104c0 8 -3 31 -9 31h-68v64h41c-18 31 -27 61 -27 90c0 51 27 85 59 106c25 17 62 27 104 27c100 0 154 -57 153 -159h-85z"/>
    <glyph glyph-name="glyph228" unicode="&#57478;" d="M93 69c-12 0 -23 11 -23 23v148h-62l99 134l103 -134h-62v-93h142l60 -78h-257zM420 364c13 0 22 -11 22 -24v-147h62l-98 -134l-103 134h61v94h-141l-60 77h257z"/>
    <glyph glyph-name="glyph229" unicode="&#57479;" d="M33 152c-15 46 -15 99 -1 147c16 54 48 97 87 128c42 34 100 57 175 53c8 0 10 -5 4 -9c-57 -37 -106 -106 -103 -195c2 -69 33 -120 71 -155c37 -35 89 -62 160 -60c13 1 23 1 32 3c10 2 10 -1 5 -7c-51 -57 -141 -100 -247 -75c-69 17 -122 58 -156 111 c-12 18 -20 37 -27 59z"/>
    <glyph glyph-name="glyph230" unicode="&#57480;" d="M0 203v43h86c-1 0 -2 -8 -2 -22s1 -21 2 -21h-86zM59 59l61 61c9 -12 19 -23 31 -32l-60 -60zM59 390l32 31l60 -60c-12 -9 -21 -20 -31 -32zM152 224c0 42 24 74 52 90c16 9 33 15 52 15c42 0 74 -25 90 -53c9 -16 14 -33 14 -52c0 -42 -24 -74 -52 -90 c-16 -9 -33 -14 -52 -14c-42 0 -74 24 -90 52c-9 16 -14 33 -14 52zM235 -32v86c0 -1 7 -2 21 -2s21 1 21 2v-86h-42zM235 395v85h42v-85c0 1 -7 1 -21 1s-21 0 -21 -1zM361 88c12 9 22 20 31 32l61 -61l-32 -31zM361 361l60 60l32 -31l-61 -61c-9 12 -19 23 -31 32z M426 203c1 0 2 7 2 21s-1 22 -2 22h86v-43h-86z"/>
    <glyph glyph-name="glyph231" unicode="&#57481;" d="M85 54c-45 0 -82 38 -82 83c0 41 30 74 65 82c-1 5 -1 10 -1 16c0 47 21 86 46 111s64 46 111 46c69 0 121 -43 143 -92c13 4 25 6 38 6c50 0 89 -29 108 -63c11 -19 16 -40 16 -63c0 -37 -16 -69 -36 -89c-19 -20 -51 -37 -88 -37h-320z"/>
    <glyph glyph-name="glyph232" unicode="&#57482;" d="M-20 224c-7 0 -5 3 -1 5l523 257c5 3 8 0 5 -5l-267 -513c-3 -5 -4 -5 -5 1v255h-255zM160 277c-5 -2 -6 -10 1 -10h105c4 0 10 4 19 12l146 130c4 4 2 5 -3 2z"/>
    <glyph glyph-name="glyph233" unicode="&#57483;" d="M11 -8c-6 1 -7 10 -1 11c32 11 52 32 64 63c8 19 16 39 33 48c9 5 18 9 30 9c52 2 78 -55 48 -95c-25 -28 -62 -38 -120 -38c-15 0 -34 0 -54 2zM174 152c20 37 31 57 34 61c8 11 31 31 43 42c41 34 147 114 198 154c41 32 62 49 62 49c5 4 13 6 18 1s6 -10 2 -16 c0 0 -16 -20 -47 -61c-38 -50 -124 -162 -157 -203c-12 -15 -28 -32 -41 -41c-9 -6 -36 -21 -47 -28l-14 -8c-4 -2 -7 -1 -8 3c-6 21 -19 33 -40 39c-5 1 -5 4 -3 8z"/>
    <glyph glyph-name="glyph234" unicode="&#57484;" d="M21 -32l68 136l70 -70zM99 132l263 263h-38l-131 -132l-1 1v29l124 123h67l11 11c8 8 21 8 29 1l29 29c4 4 10 7 16 7s11 -3 15 -7l28 -28c4 -4 6 -9 6 -15s-2 -11 -6 -15l-29 -30c7 -8 7 -21 -1 -29l-295 -295z"/>
    <glyph glyph-name="glyph235" unicode="&#57485;" d="M27 265c0 79 40 134 86 169c31 23 73 41 124 41c79 0 134 -40 169 -86c23 -31 41 -73 41 -124c0 -41 -12 -79 -34 -114l130 -130c2 -2 4 -4 4 -7s-2 -6 -4 -8l-47 -48c-2 -2 -5 -3 -8 -3s-6 1 -8 3l-130 131c-35 -22 -72 -34 -113 -34c-79 0 -135 40 -170 86 c-23 31 -40 73 -40 124zM93 265c0 -43 19 -78 42 -101s59 -42 102 -42s78 19 101 42s42 58 42 101c0 58 -32 101 -71 124c-22 13 -46 19 -72 19c-58 0 -101 -32 -124 -71c-13 -22 -20 -46 -20 -72zM160 246c-6 0 -11 4 -11 10v22c0 6 5 10 11 10h53v54c0 6 5 10 11 10h21 c6 0 11 -4 11 -10v-54h53c6 0 11 -4 11 -10v-22c0 -6 -5 -10 -11 -10h-53v-54c0 -6 -5 -10 -11 -10h-21c-6 0 -11 4 -11 10v54h-53z"/>
    <glyph glyph-name="glyph236" unicode="&#57486;" d="M4 272c0 77 39 129 84 163c30 22 71 40 120 40c77 0 130 -38 164 -83c22 -30 40 -71 40 -120c0 -40 -12 -77 -33 -111l126 -126c2 -2 3 -3 3 -6s-1 -6 -3 -8l-45 -47c-2 -2 -5 -3 -8 -3s-6 1 -8 3l-126 127c-34 -21 -70 -33 -110 -33c-77 0 -130 39 -164 84 c-22 30 -40 71 -40 120zM69 272c0 -42 19 -76 41 -98s56 -41 98 -41s77 19 99 41s40 56 40 98c0 56 -31 98 -69 120c-21 13 -45 18 -70 18c-56 0 -99 -31 -120 -69c-13 -21 -19 -44 -19 -69zM139 253c-6 0 -11 4 -11 10v21c0 6 5 10 11 10h144c6 0 11 -4 11 -10v-21 c0 -6 -5 -10 -11 -10h-144z"/>
    <glyph glyph-name="glyph237" unicode="&#57487;" d="M256 479c57 0 105 -48 105 -105c0 -42 -24 -74 -52 -90c-16 -9 -34 -14 -53 -14c-29 0 -53 10 -73 30s-31 45 -31 74c0 42 24 75 52 91c16 9 33 14 52 14zM256 447c-36 0 -71 -22 -71 -57c0 -9 1 -18 8 -18s12 10 13 17c1 13 18 23 30 27c8 3 15 4 22 4h3l1 -1 c13 0 21 13 10 22c-4 3 -9 5 -16 6zM256 -31c-27 0 -65 9 -65 32c0 19 26 29 45 32v218c3 -1 9 -2 20 -2s18 1 21 2v-218c19 -3 45 -13 45 -32c0 -23 -39 -32 -66 -32z"/>
    <glyph glyph-name="glyph238" unicode="&#57488;" d="M-21 75c-12 0 -22 9 -22 21v256c0 12 10 22 22 22v-299zM21 54c-12 0 -21 9 -21 21v299c0 12 9 21 21 21h22v-341h-22zM85 32c-12 0 -21 10 -21 22v341c0 12 9 21 21 21h342c12 0 21 -9 21 -21v-341c0 -12 -9 -22 -21 -22h-342zM192 165c0 1 -14 0 -17 0 c-19 -2 -33 -11 -42 -23c-19 -25 3 -47 29 -47c27 0 51 16 51 44v122l128 29v-94c0 1 -14 0 -17 0c-19 -2 -33 -11 -42 -23c-12 -17 -7 -35 8 -43c7 -4 15 -6 24 -6c23 0 49 12 49 36v188c0 5 -2 8 -5 8l-160 -39c-4 -1 -6 -5 -6 -11v-141zM512 75c0 -12 -9 -21 -21 -21h-22 v341h22c12 0 21 -9 21 -21v-299zM533 374c12 0 22 -10 22 -22v-256c0 -12 -10 -21 -22 -21v299z"/>
    <glyph glyph-name="glyph239" unicode="&#57489;" d="M73 384c36 36 92 65 160 65c69 0 120 -28 156 -62s65 -79 68 -143l1 -1h47c4 0 5 -1 5 -4c0 -2 0 -3 -1 -4l-74 -106c-2 -2 -2 -4 -5 -4s-3 2 -5 4l-74 106c-1 1 -1 2 -1 4c0 3 1 4 5 4h46c-2 45 -25 82 -51 106s-69 44 -117 44c-50 0 -94 -23 -120 -49s-49 -69 -49 -120 c0 -54 21 -90 47 -117c17 -18 36 -29 59 -39c17 -7 34 -12 54 -12c53 0 81 11 112 35c7 6 15 12 24 20c2 2 4 3 8 3c5 0 10 -3 14 -7l14 -14c4 -4 6 -9 6 -14c0 -6 -3 -9 -7 -13c-41 -39 -95 -67 -173 -67c-28 0 -52 9 -75 19c-47 20 -84 52 -110 94c-17 28 -30 68 -30 112 c0 68 30 124 66 160zM167 131c-5 0 -9 3 -9 8v95c0 5 4 9 9 9h9v29c0 26 19 46 45 46h23c26 0 45 -20 45 -46v-29h10c5 0 9 -4 9 -9v-95c0 -5 -4 -8 -9 -8h-132zM221 280c-5 0 -7 -3 -7 -8v-29h37v29c0 5 -2 8 -7 8h-23z"/>
    <glyph glyph-name="glyph240" unicode="&#57490;" d="M112 182c-6 0 -6 7 -3 11l210 278c1 2 3 4 4 4s2 -2 1 -5l-46 -193c-2 -6 2 -10 7 -10h100c6 0 8 -4 4 -8c-138 -186 -208 -281 -210 -284s-3 -3 -4 -3s-2 3 -1 7l46 195c1 5 -2 8 -8 8h-100z"/>
    <glyph glyph-name="glyph241" unicode="&#57491;" d="M102 326c0 46 21 85 45 109s63 45 109 45s85 -21 109 -45s45 -63 45 -109c0 -13 -4 -36 -7 -46l-3 -8c-24 -62 -85 -189 -114 -248l-26 -51c-1 -3 -2 -4 -4 -4s-3 1 -4 4c-35 69 -108 218 -140 299c-7 20 -10 39 -10 54zM256 396c-38 0 -70 -32 -70 -70 c0 -39 31 -71 70 -71s71 32 71 71s-32 70 -71 70z"/>
    <glyph glyph-name="glyph242" unicode="&#57492;" d="M255 -32c-81 0 -144 37 -186 81l-39 -40c-4 -4 -9 -3 -10 3l-19 138c-1 6 3 9 9 8l137 -19c6 -1 8 -5 4 -9l-36 -36c26 -28 54 -47 98 -56v283c-20 14 -43 41 -43 74c0 47 38 85 85 85s86 -38 86 -85c0 -33 -22 -60 -42 -74v-283c43 9 71 28 97 56l-36 36c-4 4 -3 8 3 9 l137 19c6 1 10 -3 9 -9l-20 -137c-1 -6 -5 -7 -9 -3l-40 40c-42 -44 -105 -81 -185 -81zM255 440c-25 0 -45 -20 -45 -45s20 -45 45 -45s45 20 45 45s-20 45 -45 45z"/>
    <glyph glyph-name="glyph243" unicode="&#57493;" d="M55 136c-24 18 -46 45 -46 84c0 63 60 101 114 117c-5 -13 -7 -25 -7 -38c0 -49 31 -88 62 -111c35 -26 89 -44 149 -44h6c-32 -29 -84 -50 -143 -50c-25 0 -51 4 -74 12l-71 -38c-5 -3 -8 0 -7 5zM511 305c0 -38 -22 -65 -46 -83l17 -63c1 -5 -1 -7 -6 -4l-71 37 c-23 -7 -48 -11 -72 -11c-66 0 -125 25 -155 62c-16 19 -24 40 -24 62c0 54 45 91 89 108c27 11 58 16 90 16c66 0 124 -25 155 -62c16 -19 23 -40 23 -62z"/>
    <glyph glyph-name="glyph244" unicode="&#57494;" d="M68 141c-34 26 -65 65 -65 119c0 45 23 80 49 104c46 43 115 72 204 72c71 0 136 -21 179 -51c37 -26 75 -68 75 -125s-38 -99 -75 -125c-43 -30 -108 -52 -179 -52c-35 0 -70 6 -103 16l-103 -64c-5 -3 -8 -1 -6 5z"/>
    <glyph glyph-name="glyph245" unicode="&#57495;" d="M32 149c0 63 36 111 79 136c24 14 50 21 78 21c25 0 49 -6 71 -17l84 84l-54 54c-3 3 -2 5 2 6l192 24c4 1 8 -2 7 -6l-26 -192c-1 -4 -3 -5 -6 -2l-53 54l-82 -82c15 -25 23 -51 23 -80c0 -63 -37 -112 -79 -137c-24 -14 -51 -21 -79 -21c-63 0 -111 36 -136 79 c-14 24 -21 51 -21 79zM189 221c-39 0 -72 -33 -72 -72c0 -40 33 -72 72 -72s72 33 72 72s-33 72 -72 72z"/>
    <glyph glyph-name="glyph246" unicode="&#57496;" d="M213 174c-61 17 -114 77 -114 152c0 47 22 87 48 112s66 46 113 46c64 0 113 -37 138 -79c14 -24 21 -51 21 -79c0 -40 -17 -76 -36 -99c-20 -24 -50 -45 -84 -54v-77h64c11 0 21 -15 21 -27v-29c0 -12 -9 -29 -21 -29h-64v-56c0 -12 -10 -29 -22 -29h-42 c-12 0 -22 17 -22 29v56h-64c-12 0 -21 17 -21 29v29c0 12 10 27 21 27h64v78zM259 398c-39 0 -72 -33 -72 -72s33 -72 72 -72s72 33 72 72s-33 72 -72 72z"/>
    <glyph glyph-name="glyph247" unicode="&#57497;" d="M53 182c-6 0 -10 4 -10 10v64c0 6 4 11 10 11h100l-64 64c-2 2 -4 5 -4 8s2 6 4 8l45 45c2 2 4 3 7 3s6 -1 8 -3l64 -65v100c0 6 5 11 11 11h64c6 0 11 -5 11 -11v-100l64 65c2 2 5 3 8 3s5 -1 7 -3l46 -45c2 -2 3 -5 3 -8s-1 -6 -3 -8l-65 -64h100c6 0 10 -5 10 -11v-64 c0 -6 -4 -10 -10 -10h-100l65 -65c2 -2 3 -4 3 -7s-1 -6 -3 -8l-46 -45c-2 -2 -4 -3 -7 -3s-6 1 -8 3l-64 64v-99c0 -6 -5 -11 -11 -11h-64c-6 0 -11 5 -11 11v99l-64 -64c-2 -2 -5 -3 -8 -3s-5 1 -7 3l-45 45c-2 2 -3 4 -3 7s1 6 3 8l64 65h-100z"/>
    <glyph glyph-name="glyph248" unicode="&#57498;" d="M75 182c-6 0 -11 4 -11 10v64c0 6 5 11 11 11h362c6 0 11 -5 11 -11v-64c0 -6 -5 -10 -11 -10h-362zM224 54c-6 0 -11 4 -11 10v64c0 6 5 11 11 11h64c6 0 11 -5 11 -11v-64c0 -6 -5 -10 -11 -10h-64zM224 310c-6 0 -11 4 -11 10v64c0 6 5 11 11 11h64c6 0 11 -5 11 -11 v-64c0 -6 -5 -10 -11 -10h-64z"/>
    <glyph glyph-name="glyph249" unicode="&#57499;" d="M13 281c-5 0 -9 4 -9 9v94c0 5 4 9 9 9h28c0 44 53 46 88 55c41 9 45 11 86 16c80 9 142 -8 206 -24c16 -4 29 -11 40 -20c7 -6 12 -15 12 -27h28c5 0 10 -4 10 -9v-94c0 -5 -5 -10 -10 -10h-28c0 -20 -17 -37 -35 -39l-134 -14c-4 -1 -8 0 -12 1c-3 -2 -4 -4 -8 -4h-57 c-4 0 -5 2 -8 4c-4 -1 -9 -2 -13 -1l-130 15c-19 2 -35 19 -35 39h-28zM149 93c-8 0 -13 11 -14 18c-11 0 -23 1 -30 -3c-8 -4 -12 -12 -12 -25c0 -26 16 -28 42 -28v-56c-27 0 -51 10 -68 22s-31 34 -31 62c0 43 30 68 63 79c11 4 24 6 36 6c2 7 5 19 14 19h24 c0 -4 1 -14 1 -18c0 -10 -3 -16 -13 -17c-9 -1 -11 -20 -2 -23c8 -3 14 -1 14 -12v-24h-24zM60 281c0 -11 9 -20 19 -21l129 -15c11 -1 24 25 27 34l7 22c4 11 1 30 15 30s11 -19 15 -30l7 -22c4 -11 8 -23 15 -30c3 -3 5 -4 8 -4l134 15c10 1 19 9 19 20v113 c0 11 -10 19 -20 21c-36 7 -68 13 -104 20c-26 5 -45 10 -74 10c-37 0 -71 -9 -103 -15c-26 -4 -50 -10 -76 -15c-10 -2 -18 -10 -18 -21v-112zM80 371c0 8 6 15 14 16l136 15c6 0 10 -5 8 -11l-27 -97c-2 -7 -10 -12 -19 -11l-98 13c-7 1 -14 9 -14 17v58zM154 -1v56h225 v-56h-225zM276 391c-2 6 2 11 7 11l137 -15c8 -1 15 -8 15 -16v-58c0 -8 -8 -16 -15 -17l-98 -13c-9 -1 -17 4 -19 11zM398 -1v56h75v-56h-75z"/>
    <glyph glyph-name="glyph250" unicode="&#57500;" d="M13 281c-5 0 -9 4 -9 9v94c0 5 4 9 9 9h28c0 44 53 46 88 55c41 9 45 11 86 16c81 9 143 -8 207 -24c16 -4 28 -11 39 -20c7 -6 12 -15 12 -27h29c5 0 9 -4 9 -9v-94c0 -5 -4 -10 -9 -10h-29c0 -20 -17 -37 -35 -39l-134 -14c-4 -1 -8 0 -12 1c-3 -2 -4 -4 -8 -4h-56 c-4 0 -6 2 -9 4c-4 -1 -8 -2 -12 -1l-131 15c-19 2 -35 19 -35 39h-28zM60 281c0 -11 9 -20 19 -21l129 -15c11 -1 24 25 27 34l7 22c4 11 2 30 16 30s11 -19 15 -30l7 -22c4 -11 8 -23 15 -30c3 -3 5 -4 8 -4l133 15c10 1 19 9 19 20v113c0 11 -9 19 -19 21 c-36 7 -68 13 -104 20c-26 5 -45 10 -74 10c-37 0 -71 -9 -103 -15c-26 -4 -51 -10 -77 -15c-10 -2 -18 -10 -18 -21v-112zM80 371c0 8 6 15 14 16l136 15c6 0 10 -5 8 -11l-27 -97c-2 -7 -9 -12 -18 -11l-99 13c-7 1 -14 9 -14 17v58zM258 18c-34 0 -60 19 -73 42 c-8 13 -12 27 -12 42c0 46 39 85 85 85c40 0 68 -25 79 -56h24c11 0 18 -9 18 -20h94v-18h-94c0 -11 -7 -19 -18 -19h-25c-11 -31 -38 -56 -78 -56zM258 149c-26 0 -48 -21 -48 -47s22 -47 48 -47s46 21 46 47s-20 47 -46 47zM276 391c-2 6 2 11 7 11l138 -15 c8 -1 15 -8 15 -16v-58c0 -8 -8 -16 -15 -17l-99 -13c-9 -1 -17 4 -19 11z"/>
    <glyph glyph-name="glyph251" unicode="&#57501;" d="M87 -28c-11 0 -19 7 -19 18v320c0 37 27 64 57 72v31c0 5 4 10 9 10h9v38c0 11 8 18 19 18s19 -7 19 -18v-38h9c5 0 10 -5 10 -10v-31c30 -8 56 -35 56 -72v-320c0 -11 -7 -18 -18 -18h-151zM294 -28c-11 0 -20 7 -20 18v320c0 37 27 64 57 72v31c0 5 5 10 10 10h9v18 h-19v20h19c0 11 8 18 19 18s18 -7 18 -18h20c0 11 7 18 18 18h38c11 0 18 -7 18 -18v-20c0 -11 -7 -18 -18 -18h-38c-11 0 -18 7 -18 18h-20v-18h10c5 0 10 -5 10 -10v-31c30 -8 56 -35 56 -72v-320c0 -11 -8 -18 -19 -18h-150z"/>
    <glyph glyph-name="glyph252" unicode="&#57502;" d="M110 19c-46 0 -85 12 -107 34v82l66 265c2 17 22 33 41 33s39 -16 41 -33h1l65 -265v-82c-7 -8 -24 -17 -36 -22c-17 -7 -45 -12 -71 -12zM92 385l-14 -57c0 -2 -2 -8 -2 -10c0 -19 15 -31 34 -31s33 12 33 31c0 2 -1 9 -2 11l-13 57c0 10 -8 18 -18 18s-18 -9 -18 -19z M183 417c5 19 22 35 45 33c11 -1 19 -5 24 -11l210 -176l48 -67c-1 -12 -9 -29 -16 -39c-19 -29 -53 -56 -86 -72c-19 -9 -32 -13 -52 -15c-6 -1 -12 -1 -15 0h-6l-48 67l-101 254c-5 7 -5 15 -3 26zM231 422c-16 2 -27 -16 -18 -30c9 -20 17 -41 26 -61c9 -16 30 -20 46 -8 c15 10 22 31 8 47c-3 4 -5 5 -6 6l-45 38c-3 4 -6 7 -11 8z"/>
    <glyph glyph-name="glyph253" unicode="&#57503;" d="M275 203c-13 -10 -38 -22 -52 -30v-34l-38 22c-14 -3 -26 -5 -38 -5c-47 0 -89 17 -118 35c-10 6 -15 10 -20 15s-8 8 -8 10s2 4 6 7c10 10 26 19 40 27c18 10 45 19 69 23l73 37v-40c29 -8 65 -26 86 -41l60 41c4 2 7 2 7 -3c-6 -10 -18 -35 -18 -52c0 -13 9 -33 14 -42 l4 -8c0 -5 -3 -6 -7 -4zM78 250c-10 0 -17 -6 -17 -16s7 -18 17 -18s17 8 17 18s-7 16 -17 16zM395 374c-13 -10 -38 -23 -53 -31v-33l-38 21c-13 -3 -26 -5 -38 -5c-47 0 -87 18 -116 36c-9 6 -16 10 -21 15s-8 8 -8 10s2 4 6 8c10 10 26 20 40 27c18 10 45 18 69 22l73 36 v-39c29 -8 65 -27 86 -42l60 42c4 2 8 1 8 -4c-6 -10 -19 -35 -19 -52c0 -13 8 -33 13 -42l5 -9c0 -5 -3 -5 -7 -3zM412 32c-13 -10 -39 -22 -53 -30v-34l-38 21c-14 -3 -26 -4 -38 -4c-47 0 -88 17 -117 35c-10 6 -16 10 -21 15s-7 8 -7 10s1 5 5 8c10 10 26 20 40 27 c18 10 45 18 69 22l74 37v-40c29 -8 65 -27 86 -42l59 43c4 2 8 1 8 -4c-6 -10 -19 -35 -19 -52c0 -13 9 -34 14 -43l5 -8c0 -5 -4 -5 -8 -3zM198 421c-10 0 -17 -7 -17 -17s7 -17 17 -17s17 7 17 17s-7 17 -17 17zM214 79c-10 0 -17 -7 -17 -17s7 -17 17 -17s17 7 17 17 s-7 17 -17 17z"/>
    <glyph glyph-name="glyph254" unicode="&#57504;" d="M18 173c-7 11 0 23 9 27l209 87c5 2 12 3 20 3s15 -1 20 -3l209 -87c9 -4 16 -16 9 -27l-120 -186c-7 -11 -15 -19 -33 -19c-6 0 -16 8 -30 22s-27 28 -38 42l-17 21c-18 -24 -44 -56 -68 -75c-8 -6 -13 -10 -17 -10c-18 0 -26 7 -33 19zM288 480c6 0 11 -4 11 -10v-11 h32c7 0 13 -5 15 -10l34 -67l48 -21c9 -4 20 -17 20 -30v-80l-192 80l-192 -80v80c0 13 11 26 20 30l48 21l34 67c2 5 9 10 15 10h32v11c0 6 5 10 11 10h64zM85 283l151 63c-1 3 -1 4 -1 6v43c-2 0 -32 -7 -33 -7l-110 -47c-2 -1 -7 -7 -7 -10v-48zM276 346l151 -63v48 c0 3 -5 9 -7 10l-110 47l-33 7v-43c0 -2 0 -3 -1 -6z"/>
    <glyph glyph-name="glyph255" unicode="&#57505;" d="M512 54c0 -12 -9 -22 -21 -22h-358l-164 185c-4 4 -3 11 1 15l163 163h358c12 0 21 -9 21 -21v-320zM207 155c0 -3 1 -4 3 -6l39 -39c2 -2 4 -3 7 -3s4 1 6 3l53 53l53 -53c2 -2 3 -3 6 -3s5 1 7 3l39 39c2 2 2 3 2 6s0 5 -2 7l-53 53l53 52c2 2 2 4 2 7s0 5 -2 7l-39 38 c-2 2 -4 3 -7 3s-4 -1 -6 -3l-53 -52l-53 52c-2 2 -5 3 -7 3s-4 -1 -6 -3l-39 -38c-2 -2 -3 -5 -3 -7s1 -5 3 -7l53 -52l-53 -53c-2 -2 -3 -4 -3 -7z"/>
    <glyph glyph-name="glyph256" unicode="&#57506;" d="M39 62c-21 0 -39 23 -39 45s17 39 39 39c7 0 15 -1 21 -5l48 78l-47 72c-6 -4 -14 -6 -22 -6c-21 0 -39 19 -39 40c0 22 17 42 39 42c21 0 40 -15 40 -36h93l64 101c-13 8 -19 18 -19 30c0 22 17 40 39 40s39 -17 39 -39c0 -13 -6 -23 -19 -31l64 -101h93 c0 21 18 36 40 36c21 0 39 -21 39 -43s-17 -40 -39 -40c-8 0 -15 3 -22 7l-47 -73l48 -78c6 4 13 6 21 6c21 0 39 -20 39 -42s-18 -42 -39 -42c-22 0 -40 13 -40 34h-101l-55 -80c10 -7 18 -13 18 -28c0 -22 -17 -40 -39 -40s-39 16 -39 38c0 13 6 23 18 31l-55 79h-101 c0 -21 -19 -34 -40 -34z"/>
    <glyph glyph-name="glyph257" unicode="&#57507;" d="M49 271v-41h-41v248h207v-124h41v-42h-41v-41h-166zM504 271h-83v-41h83v-83h-124v124h-83v124h-41v83h248v-207zM49 436v-124h124v124h-124zM339 312h124v124h-124v-124zM91 354v41h41v-41h-41zM380 395h41v-41h-41v41zM132 230v-42h83v-206h-207v206h83v42h41zM380 64 v-41h-83v41h-41v42h41v82h-82v42h124v-124h82v-42h-41zM173 147h-124v-124h124v124zM132 64h-41v42h41v-42zM463 106h41v-42h-41v42zM256 23h41v-41h-41v41zM504 23v-41h-124v41h124z"/>
    <glyph glyph-name="glyph258" unicode="&#57508;" d="M43 478v-426h-43v426h43zM128 52h-43v426h43v-426zM299 52h-86v426h86v-426zM384 52h-43v426h43v-426zM512 478v-426h-85v426h85zM171 9v-43h-128v43h128zM213 5h43v-39h-43v39zM299 5h42v-39h-42v39zM469 5v-39h-85v39h85z"/>
    <glyph glyph-name="glyph259" unicode="&#57509;" d="M0 10v64c33 0 53 -12 71 -27c11 -9 14 -14 31 -14c21 0 31 14 44 23c15 10 34 18 59 18c33 0 53 -12 71 -27c11 -9 15 -14 31 -14s21 6 31 14c18 15 38 27 72 27c33 0 53 -12 71 -27c10 -8 15 -14 31 -14v-64c-34 0 -53 13 -71 28c-10 8 -15 13 -31 13 c-21 0 -31 -14 -44 -23c-14 -10 -34 -18 -59 -18c-33 0 -53 13 -71 28c-10 8 -15 13 -31 13s-22 -5 -32 -13c-18 -15 -37 -28 -71 -28s-53 13 -71 28c-11 9 -15 13 -31 13zM0 117v64c33 0 53 -13 71 -28c11 -9 14 -13 31 -13c21 0 31 14 44 23c15 10 34 18 59 18 c33 0 53 -13 71 -28c11 -9 15 -13 31 -13c21 0 31 14 44 23c14 10 34 18 59 18c33 0 53 -13 71 -28c10 -8 15 -13 31 -13v-64c-34 0 -53 12 -71 27c-11 9 -15 14 -31 14c-21 0 -31 -14 -44 -23c-14 -10 -34 -18 -59 -18c-33 0 -53 12 -71 27c-10 8 -15 14 -31 14 s-22 -6 -32 -14c-18 -15 -37 -27 -71 -27s-53 12 -71 27c-11 9 -15 14 -31 14zM256 210c-15 4 -32 14 -51 14c-17 0 -49 -11 -63 -16l-14 -5v-11c0 -7 -17 -9 -26 -9c-4 0 -17 0 -17 3v188c0 9 11 20 17 26l21 21c13 13 27 26 40 39s29 20 48 20c23 0 39 -8 53 -19l-27 -27 c-7 4 -16 8 -26 8c-8 0 -15 -3 -21 -9l-31 -31c-13 -11 -23 -20 -31 -28h85c0 4 2 7 5 11c8 12 22 25 33 36c14 12 27 26 40 39s29 20 48 20c27 0 44 -10 58 -26c10 -12 18 -25 22 -38h-39c-5 13 -23 26 -41 26c-8 0 -15 -3 -21 -9c-13 -13 -28 -29 -45 -44 c-7 -6 -13 -11 -17 -15v-164zM128 246h85v21h-85v-21zM128 310h85v21h-85v-21z"/>
    <glyph glyph-name="glyph260" unicode="&#57510;" d="M0 10v64c33 0 53 -12 71 -27c11 -9 14 -14 31 -14c21 0 31 14 44 23c15 10 34 18 59 18c33 0 53 -12 71 -27c11 -9 15 -14 31 -14s21 6 31 14c18 15 38 27 72 27c33 0 53 -12 71 -27c10 -8 15 -14 31 -14v-64c-34 0 -53 13 -71 28c-10 8 -15 13 -31 13 c-21 0 -31 -14 -44 -23c-14 -10 -34 -18 -59 -18c-33 0 -53 13 -71 28c-10 8 -15 13 -31 13s-22 -5 -32 -13c-18 -15 -37 -28 -71 -28s-53 13 -71 28c-11 9 -15 13 -31 13zM0 117v64c33 0 53 -13 71 -28c11 -9 14 -13 31 -13c21 0 31 14 44 23c15 10 34 18 59 18 c33 0 53 -13 71 -28c11 -9 15 -13 31 -13c21 0 31 14 44 23c14 10 34 18 59 18c33 0 53 -13 71 -28c10 -8 15 -13 31 -13v-64c-34 0 -53 12 -71 27c-10 8 -15 14 -31 14c-21 0 -31 -14 -44 -23c-14 -10 -34 -18 -59 -18c-33 0 -53 12 -71 27c-10 8 -15 14 -31 14 s-22 -6 -32 -14c-18 -15 -37 -27 -71 -27s-53 12 -71 27c-11 9 -15 14 -31 14zM245 459c6 0 11 -5 11 -11v-161c46 -5 84 -43 85 -92c-8 -5 -18 -12 -25 -19c-2 -2 -4 -4 -8 -4c-6 0 -8 4 -12 6c-23 18 -49 35 -91 35c-19 0 -38 -3 -55 -11c4 45 41 80 85 85v161 c0 6 4 11 10 11zM277 352v107c88 12 133 19 137 20c6 1 6 -4 3 -7z"/>
    <glyph glyph-name="glyph261" unicode="&#57511;" d="M2 48c-12 78 20 138 59 177l45 45l60 -60l30 30l16 -15l196 196l-23 23c-2 2 -3 4 -3 7s1 6 3 8l15 15c2 2 5 3 8 3s5 -1 7 -3l91 -90c2 -2 3 -5 3 -8s-1 -6 -3 -8l-15 -15c-2 -2 -5 -3 -8 -3s-5 1 -7 3l-23 23l-196 -196l15 -15l-30 -30l60 -61l-45 -45 c-28 -28 -63 -49 -109 -58c-47 -9 -97 2 -129 17c-6 13 -14 40 -17 60z"/>
    <glyph glyph-name="glyph262" unicode="&#57512;" d="M11 -32c-6 0 -11 5 -11 11v21c0 6 5 11 11 11h490c6 0 11 -5 11 -11v-21c0 -6 -5 -11 -11 -11h-490zM11 246c-6 0 -11 7 -11 13s4 15 8 18l240 197c5 4 12 4 16 0l240 -197c4 -3 8 -12 8 -18s-5 -13 -11 -13h-53v-171h32c6 0 11 -4 11 -10v-22c0 -6 -5 -11 -11 -11h-448 c-6 0 -11 5 -11 11v22c0 6 5 10 11 10h32v171h-53zM107 75h42v171h-42v-171zM192 75h43v171h-43v-171zM277 75h43v171h-43v-171zM363 75h42v171h-42v-171z"/>
    <glyph glyph-name="glyph263" unicode="&#57513;" d="M116 24c-11 0 -20 -9 -20 -20v-20h-61v480h442v-480h-61v20c0 11 -9 20 -20 20h-100c-11 0 -20 -9 -20 -20v-20h-40v20c0 11 -9 20 -20 20h-100zM196 294c0 -22 3 -34 20 -40v-39c-31 -9 -58 -26 -82 -41c-11 -7 -18 -10 -18 -26v-23h280v23c0 20 -13 24 -26 32 c-22 13 -47 27 -74 35v39c16 5 20 19 20 40v41c0 38 -22 60 -60 60s-60 -22 -60 -60v-41z"/>
    <glyph glyph-name="glyph264" unicode="&#57514;" d="M437 352c6 0 11 -4 11 -10v-54c0 -22 -11 -43 -21 -58c-21 -33 -47 -65 -65 -101c-11 -21 -21 -51 -21 -82v-36h-42v-43h-86v43h-42v36c0 50 -22 87 -42 118c-14 22 -31 44 -44 65c-10 16 -21 36 -21 58v54c0 6 5 10 11 10h53v128c0 12 9 22 21 22s22 -10 22 -22v-128 h170v128c0 12 10 22 22 22s21 -10 21 -22v-128h53zM160 310c-6 0 -11 -5 -11 -11s5 -11 11 -11h192c6 0 11 5 11 11s-5 11 -11 11h-192zM181 267c-6 0 -10 -5 -10 -11s4 -10 10 -10h150c6 0 10 4 10 10s-4 11 -10 11h-150zM203 224c-6 0 -11 -4 -11 -10s5 -11 11 -11h106 c6 0 11 5 11 11s-5 10 -11 10h-106zM224 182c-6 0 -11 -5 -11 -11s5 -11 11 -11h64c6 0 11 5 11 11s-5 11 -11 11h-64z"/>
    <glyph glyph-name="glyph265" unicode="&#57515;" d="M75 -34c-16 0 -32 6 -32 22v476c0 16 16 27 32 27s32 -11 32 -27v-474c0 -16 -16 -24 -32 -24zM128 192v278c10 -7 31 -16 46 -21c20 -6 54 -11 82 -11c76 0 107 55 189 43c14 -2 30 -5 46 -11v-278c-25 9 -52 17 -83 13c-47 -6 -76 -31 -119 -41c-11 -3 -22 -4 -33 -4 c-42 0 -79 9 -107 21c-7 3 -13 6 -16 8z"/>
    <glyph glyph-name="glyph266" unicode="&#57516;" d="M23 30c-11 0 -19 8 -19 19v214h504v-214c0 -11 -8 -19 -19 -19h-466zM489 399c11 0 19 -9 19 -20v-58h-504v58c0 11 8 20 19 20h466zM42 69h137v59h-137v-59z"/>
    <glyph glyph-name="glyph267" unicode="&#57517;" d="M20 36c-11 0 -19 8 -19 19v338c0 11 8 19 19 19h470c11 0 18 -8 18 -19v-338c0 -11 -7 -19 -18 -19h-470zM39 74h432v301h-432v-301zM85 262c-5 0 -8 5 -8 10v37c0 5 3 9 8 9h38c5 0 10 -4 10 -9v-37c0 -5 -5 -10 -10 -10h-38zM123 111c-5 0 -9 5 -9 10v38c0 5 4 9 9 9 h264c5 0 8 -4 8 -9v-38c0 -5 -3 -10 -8 -10h-264zM123 187c-5 0 -9 4 -9 9v38c0 5 4 9 9 9h38c5 0 9 -4 9 -9v-38c0 -5 -4 -9 -9 -9h-38zM123 337c-5 0 -9 4 -9 9s4 10 9 10h38c5 0 9 -5 9 -10s-4 -9 -9 -9h-38zM161 262c-5 0 -9 5 -9 10v37c0 5 4 9 9 9h37c5 0 10 -4 10 -9 v-37c0 -5 -5 -10 -10 -10h-37zM198 187c-5 0 -9 4 -9 9v38c0 5 4 9 9 9h38c5 0 10 -4 10 -9v-38c0 -5 -5 -9 -10 -9h-38zM198 337c-5 0 -9 4 -9 9s4 10 9 10h38c5 0 10 -5 10 -10s-5 -9 -10 -9h-38zM236 262c-5 0 -10 5 -10 10v37c0 5 5 9 10 9h38c5 0 9 -4 9 -9v-37 c0 -5 -4 -10 -9 -10h-38zM274 187c-5 0 -10 4 -10 9v38c0 5 5 9 10 9h37c5 0 10 -4 10 -9v-38c0 -5 -5 -9 -10 -9h-37zM274 337c-5 0 -10 4 -10 9s5 10 10 10h37c5 0 10 -5 10 -10s-5 -9 -10 -9h-37zM311 262c-5 0 -9 5 -9 10v37c0 5 4 9 9 9h38c5 0 9 -4 9 -9v-37 c0 -5 -4 -10 -9 -10h-38zM349 187c-5 0 -10 4 -10 9v38c0 5 5 9 10 9h38c5 0 8 -4 8 -9v-38c0 -5 -3 -9 -8 -9h-38zM349 337c-5 0 -10 4 -10 9s5 10 10 10h38c5 0 8 -5 8 -10s-3 -9 -8 -9h-38zM387 262c-5 0 -10 5 -10 10v37c0 5 5 9 10 9h37c5 0 9 -4 9 -9v-37 c0 -5 -4 -10 -9 -10h-37z"/>
    <glyph glyph-name="glyph268" unicode="&#57518;" d="M20 36c-11 0 -19 8 -19 19v338c0 11 8 19 19 19h206v37h20v76h18v-76h18v-37h207c11 0 19 -8 19 -19v-338c0 -11 -8 -19 -19 -19h-469zM39 74h432v301h-432v-301zM85 262c-5 0 -9 5 -9 10v37c0 5 4 9 9 9h38c5 0 10 -4 10 -9v-37c0 -5 -5 -10 -10 -10h-38zM123 111 c-5 0 -10 5 -10 10v38c0 5 5 9 10 9h263c5 0 9 -4 9 -9v-38c0 -5 -4 -10 -9 -10h-263zM123 187c-5 0 -10 4 -10 9v38c0 5 5 9 10 9h38c5 0 9 -4 9 -9v-38c0 -5 -4 -9 -9 -9h-38zM123 337c-5 0 -10 4 -10 9s5 10 10 10h38c5 0 9 -5 9 -10s-4 -9 -9 -9h-38zM161 262 c-5 0 -10 5 -10 10v37c0 5 5 9 10 9h37c5 0 10 -4 10 -9v-37c0 -5 -5 -10 -10 -10h-37zM198 187c-5 0 -9 4 -9 9v38c0 5 4 9 9 9h38c5 0 10 -4 10 -9v-38c0 -5 -5 -9 -10 -9h-38zM198 337c-5 0 -9 4 -9 9s4 10 9 10h38c5 0 10 -5 10 -10s-5 -9 -10 -9h-38zM236 262 c-5 0 -10 5 -10 10v37c0 5 5 9 10 9h38c5 0 8 -4 8 -9v-37c0 -5 -3 -10 -8 -10h-38zM274 187c-5 0 -10 4 -10 9v38c0 5 5 9 10 9h37c5 0 9 -4 9 -9v-38c0 -5 -4 -9 -9 -9h-37zM274 337c-5 0 -10 4 -10 9s5 10 10 10h37c5 0 9 -5 9 -10s-4 -9 -9 -9h-37zM311 262 c-5 0 -9 5 -9 10v37c0 5 4 9 9 9h38c5 0 9 -4 9 -9v-37c0 -5 -4 -10 -9 -10h-38zM349 187c-5 0 -10 4 -10 9v38c0 5 5 9 10 9h37c5 0 9 -4 9 -9v-38c0 -5 -4 -9 -9 -9h-37zM349 337c-5 0 -10 4 -10 9s5 10 10 10h37c5 0 9 -5 9 -10s-4 -9 -9 -9h-37zM386 262 c-5 0 -9 5 -9 10v37c0 5 4 9 9 9h37c5 0 10 -4 10 -9v-37c0 -5 -5 -10 -10 -10h-37z"/>
    <glyph glyph-name="glyph269" unicode="&#57519;" d="M21 331v85c19 14 59 32 88 42c36 12 97 22 147 22c87 0 159 -20 214 -51c7 -4 13 -7 16 -9l5 -4v-85c-2 -62 -15 -123 -34 -167c-17 -40 -41 -80 -68 -108c-22 -22 -48 -46 -74 -61c-17 -10 -34 -19 -51 -24l-8 -3c-17 5 -42 17 -59 27c-24 14 -54 40 -74 61 c-26 27 -52 69 -68 108c-18 44 -32 105 -34 167zM213 416c-44 0 -96 -20 -128 -36v-48c1 -29 5 -58 12 -86h159v-209c82 37 136 112 159 209h-159v170h-43z"/>
    <glyph glyph-name="glyph270" unicode="&#57520;" d="M381 153c0 56 -31 98 -67 119l67 67c29 -23 50 -47 62 -72c23 -48 23 -115 3 -166c-30 -75 -97 -127 -202 -127c-69 0 -124 25 -159 61c-33 34 -58 84 -58 148c0 78 29 117 78 156l67 -67c-36 -21 -67 -63 -67 -119c0 -40 22 -71 45 -92c21 -19 56 -39 94 -39 s72 20 93 40c22 21 44 52 44 91zM106 395l78 79c4 -5 7 -9 11 -12l-47 -110zM191 318l8 -4c10 -5 32 -12 47 -12c19 0 42 9 52 16l-51 -60zM191 352l27 97c9 -3 18 -5 27 -5c8 0 16 1 25 4l28 -96c-12 -10 -33 -19 -54 -19c-16 0 -37 9 -46 15zM207 480h77 c-11 -10 -24 -15 -39 -15s-27 5 -38 15zM294 461c4 3 7 8 11 12l78 -78l-43 -43z"/>
    <glyph glyph-name="glyph271" unicode="&#57521;" d="M21 -32v259l470 80v-262zM21 270l192 210c64 0 109 -1 134 -3c89 -8 142 -34 144 -122v-6z"/>
    <glyph glyph-name="glyph272" unicode="&#57522;" d="M32 342c0 38 17 71 37 91s53 37 91 37s71 -17 91 -37s37 -53 37 -91c0 -11 -1 -21 -4 -32h90l57 170h41l-56 -170h96l-64 -342h-149l-53 279c-25 -22 -53 -34 -86 -34c-38 0 -71 18 -91 38s-37 53 -37 91zM59 335l1 -6c2 -21 11 -37 24 -54l61 60h-86zM59 349l5 -1h81 l-61 61c-14 -17 -23 -36 -25 -60zM93 265c18 -15 36 -22 59 -24l2 5v80zM93 418l61 -61v86l-7 -1c-20 -2 -38 -11 -54 -24zM166 241c24 3 43 9 61 24l-61 61v-85zM166 357l61 61c-17 14 -35 22 -59 24l-2 -4v-81zM173 338l63 -63c13 16 22 35 24 56l1 7h-88zM175 348h86 c-3 24 -10 43 -25 61z"/>
    <glyph glyph-name="glyph273" unicode="&#57523;" d="M84 -32c-23 0 -41 20 -41 43v281c0 18 -10 35 -16 48c-4 7 -6 14 -6 20c0 38 29 72 67 72c11 0 20 -2 29 -5c8 30 29 51 62 51c31 0 56 -10 74 -31c13 8 26 12 40 12c27 0 46 -14 58 -34c25 14 57 -4 69 -19c8 -10 10 -18 10 -33c0 -24 -10 -34 -24 -44 c-6 -4 -11 -7 -15 -9l-7 -4v-6h56c37 0 63 -19 67 -55c3 -37 -3 -58 -13 -92c-17 -62 -54 -98 -110 -107v-45c0 -24 -20 -43 -44 -43h-256zM107 184c13 0 21 9 21 21v61l1 3s1 -1 1 -2c4 -12 10 -18 20 -18c12 0 15 16 16 28c1 26 16 44 40 48c13 2 39 2 56 3 c27 1 64 6 87 11c18 4 44 14 44 33c0 31 -48 31 -64 14c-5 15 -15 32 -31 36c-27 5 -44 -17 -52 -38c-8 38 -29 56 -63 55c-26 -1 -36 -21 -41 -43c-1 -6 -2 -12 -2 -16v-7c-5 5 -15 11 -23 16s-10 5 -21 6c-5 1 -8 0 -11 -2c-13 -6 -24 -16 -20 -34c5 -23 20 -47 20 -75 v-78c0 -12 9 -22 22 -22zM149 199c0 -23 -18 -43 -42 -43v-113c0 -12 9 -21 21 -21s21 9 21 21v156zM213 22c12 0 22 9 22 21v247c-10 -1 -31 -6 -35 -13c-5 -9 -8 -24 -8 -43v-191c0 -12 9 -21 21 -21zM299 22c12 0 21 9 21 21v257c-15 -2 -29 -4 -43 -6v-251 c0 -12 10 -21 22 -21zM384 100c36 12 62 33 72 71c14 51 18 81 12 88c-4 5 -12 8 -23 8h-61v-167z"/>
    <glyph glyph-name="glyph274" unicode="&#57524;" d="M20 83c-5 0 -8 4 -8 9v17c0 5 3 9 8 9h230c5 0 8 -4 8 -9v-17c0 -5 -3 -9 -8 -9h-230zM250 65c0 -29 -24 -53 -53 -53h-124c-29 0 -53 24 -53 53h230zM20 136c0 23 13 39 28 50c20 14 51 21 87 21c50 0 90 -12 107 -43c5 -8 8 -18 8 -28h-230zM240 312v36h128l20 88h117 v-35h-86l-11 -53h97v-36h-21l-31 -300h-160l-32 300h-21z"/>
    <glyph glyph-name="glyph275" unicode="&#57525;" d="M149 -32c-12 0 -21 10 -21 22v234l-38 76c-3 7 -5 13 -5 20v135c0 3 1 5 2 8l7 14c1 1 1 1 2 1s1 0 2 -1l7 -14c1 -3 2 -5 2 -8v-103h21v103c0 3 1 5 2 8l7 14c1 1 1 1 2 1s1 0 2 -1l6 -14c1 -3 2 -5 2 -8v-103h22v103c0 3 1 5 2 8l6 14c1 1 1 1 2 1s1 0 2 -1l7 -14 c1 -3 2 -5 2 -8v-103h21v103c0 3 1 5 2 8l7 14c1 1 1 1 2 1s1 0 2 -1l7 -14c1 -3 2 -5 2 -8v-135c0 -7 -2 -13 -5 -20l-38 -76v-234c0 -12 -9 -22 -21 -22h-22zM384 -32c-12 0 -21 10 -21 22v170l-7 3c-11 4 -25 13 -35 20c-11 8 -22 23 -22 41v154c0 20 13 41 26 49l75 50 c15 10 27 3 27 -14v-473c0 -12 -10 -22 -22 -22h-21z"/>
    <glyph glyph-name="glyph276" unicode="&#57526;" d="M342 434c-123 -54 -214 -143 -267 -267l-48 16c26 74 65 130 117 183s108 91 182 117zM105 157c31 70 77 131 134 176c33 26 68 49 104 67l10 5l115 -349v-65c0 -10 -7 -17 -19 -14l-14 6c-9 3 -19 13 -19 25v46l-18 6v-69c0 -12 -5 -17 -15 -14l-34 11 c-9 3 -21 14 -21 26v69l-18 6v-25c0 -11 -8 -18 -19 -16l-14 2c-10 2 -20 13 -20 25v32zM162 159l104 -35c21 24 18 59 -3 80c-12 12 -25 18 -42 18s-30 -6 -42 -18c-7 -8 -15 -25 -16 -38zM263 307c-17 0 -30 -14 -30 -31s13 -31 30 -31s31 14 31 31s-14 31 -31 31z M334 169c-12 0 -23 -10 -23 -22s11 -22 23 -22s22 10 22 22s-10 22 -22 22zM358 324c-22 -4 -39 -24 -39 -48c0 -34 36 -61 70 -43zM405 162c-15 0 -27 -11 -27 -26s12 -27 27 -27s26 12 26 27s-11 26 -26 26z"/>
    <glyph glyph-name="glyph277" unicode="&#57527;" d="M27 89c7 2 26 12 33 14c1 -3 1 -8 3 -16c2 -16 6 -27 17 -34c21 -13 43 14 56 22c10 -17 12 -46 38 -47c6 0 13 5 16 7c10 7 18 18 26 26c10 -12 15 -30 28 -37c3 -2 8 -2 12 -2c14 0 21 10 27 19l13 20c10 -9 20 -23 33 -30c31 -15 37 26 47 44l13 -10 c11 -10 35 -23 49 -6c7 8 9 18 11 30c1 7 1 11 2 14c7 -2 21 -8 28 -10l6 -4v-33c0 -12 -9 -23 -16 -29c-13 -11 -32 -18 -49 -24c-45 -16 -100 -24 -164 -24c-75 0 -138 11 -188 33c-12 5 -20 11 -29 18c-7 6 -12 14 -12 26v33zM397 295c7 -4 14 -14 18 -21v-24 c42 -16 65 -31 69 -47h1v-83c-8 3 -17 9 -26 11c-26 7 -36 -15 -39 -37c-1 -7 -2 -13 -3 -15c-11 7 -21 19 -34 24c-2 1 -6 1 -9 1c-14 0 -22 -11 -26 -21c-2 -5 -8 -19 -10 -24c-9 9 -18 22 -30 29c-4 2 -9 3 -14 3c-21 -2 -28 -27 -38 -40c-2 2 -4 7 -9 15s-9 14 -13 18 c-10 9 -27 9 -37 0c-8 -7 -16 -17 -23 -25c-2 2 -4 8 -6 15c-5 13 -9 22 -20 28c-3 2 -7 2 -10 2c-20 0 -31 -17 -43 -25c-2 7 -6 26 -8 33c-7 23 -23 24 -60 8v83h1c2 9 9 19 21 27s28 15 48 22v22c5 10 11 17 18 21v58c0 5 4 9 9 9h17c5 0 9 -4 9 -9v-42c9 2 16 4 18 5v73 c0 5 4 8 9 8h17c5 0 9 -3 9 -8v-67c11 2 23 1 36 2v29c0 5 3 9 8 9h18c5 0 8 -4 8 -9v-29c13 -1 25 0 36 -2v67c0 5 4 8 9 8h17c5 0 9 -3 9 -8v-73c2 -1 9 -3 18 -5v42c0 5 4 9 9 9h17c5 0 9 -4 9 -9v-58zM56 199c-12 -11 15 -21 23 -25c49 -22 107 -30 177 -30 c86 0 147 11 195 40c5 2 3 3 6 6c2 2 2 3 2 4c2 7 -18 17 -24 19c-4 2 -14 6 -18 8h-9c-15 -13 -36 -20 -57 -26c-31 -8 -62 -11 -95 -11c-41 0 -83 7 -116 18c-12 4 -28 12 -36 19h-9c-3 -2 -14 -6 -18 -8c-7 -3 -16 -9 -21 -14zM133 379c-10 0 -18 8 -18 18c0 6 2 13 4 19 c3 11 9 23 14 34c5 -11 8 -20 11 -29s5 -15 5 -18l1 -6c0 -10 -7 -18 -17 -18zM124 274c-2 0 -4 1 -6 2c-14 -15 38 -28 51 -31c26 -7 56 -10 87 -10c47 0 86 8 121 21c7 2 26 10 17 20c-2 -2 -4 -2 -6 -2h-17c-5 0 -9 4 -9 9v10c-4 2 -11 3 -18 5v-15c0 -5 -4 -9 -9 -9h-17 c-5 0 -9 4 -9 9v20c-10 2 -23 3 -36 4v-42c0 -5 -3 -9 -8 -9h-18c-5 0 -8 4 -8 9v42c-13 -1 -26 -2 -36 -4v-3c0 -5 -4 -9 -9 -9h-17c-4 0 -7 3 -9 7c-6 -2 -11 -3 -18 -5v-10c0 -5 -4 -9 -9 -9h-17zM186 415c-10 0 -18 7 -18 17c0 6 2 13 4 19c3 11 9 23 14 34 c5 -11 8 -20 11 -29s5 -16 5 -19l1 -5c0 -10 -7 -17 -17 -17zM256 379c-10 0 -17 8 -17 18c0 21 10 37 17 53c5 -11 9 -20 12 -29s5 -15 5 -18v-6c0 -10 -7 -18 -17 -18zM326 415c-10 0 -17 7 -17 17c0 6 2 13 4 19c3 11 8 23 13 34c5 -11 10 -20 13 -29s5 -16 5 -19v-5 c0 -10 -8 -17 -18 -17zM379 379c-10 0 -17 8 -17 18c0 6 2 13 4 19c3 11 8 23 13 34c5 -11 10 -20 13 -29s5 -15 5 -18v-6c0 -10 -8 -18 -18 -18z"/>
    <glyph glyph-name="glyph278" unicode="&#57528;" d="M7 -16v380h219v40h21v80h20v-80h19v-40h221v-380h-500zM26 224h41v101h-41v-101zM86 84h341v241h-341v-241zM447 224h40v101h-40v-101z"/>
    <glyph glyph-name="glyph279" unicode="&#57529;" d="M3 389c-3 5 -2 12 2 16l31 31c4 4 11 5 16 2l61 -40c4 -3 8 -9 8 -16v-11c0 -7 3 -15 7 -18l65 -65l-41 -38l-64 63c-4 4 -11 7 -18 7h-11c-6 0 -14 4 -17 8zM12 49c0 6 2 11 6 15l245 245c-9 28 -8 56 3 83c15 39 50 70 96 79c35 7 64 -4 85 -19l-106 -57l59 -95l103 52 c4 -55 -26 -89 -62 -110c-29 -16 -68 -22 -104 -9l-244 -245c-4 -4 -9 -6 -15 -6s-11 2 -15 6l-45 45c-4 4 -6 10 -6 16zM263 106l75 79l137 -125c2 -2 4 -5 4 -8s-1 -5 -3 -7l-75 -75c-2 -2 -5 -3 -8 -3s-5 2 -7 4z"/>
    <glyph glyph-name="glyph280" unicode="&#57530;" d="M0 -32v150h21v-150h-21zM21 139v149h22v-149h-22zM43 -32v150h213l21 -22v-106l-21 -22h-213zM43 310v149h21v-149h-21zM64 139v149h213l22 -21v-107l-22 -21h-213zM85 310v149h214l21 -21v-107l-21 -21h-214zM299 -10v106h64l149 -53l-149 -53h-64zM320 160v107h64 l150 -53l-150 -54h-64zM341 331v107h64l150 -54l-150 -53h-64z"/>
    <glyph glyph-name="glyph281" unicode="&#57531;" d="M-21 54l150 42l104 395l79 -364l57 178l41 -209l102 -42h-122l-19 55l-71 -155l-72 270l-57 -170h-192z"/>
    <glyph glyph-name="glyph282" unicode="&#57532;" d="M165 6c-10 0 -18 8 -18 18v231l-73 -49l-73 73l182 146c0 -9 7 -19 10 -26c12 -21 30 -38 64 -38c41 0 63 26 71 57c1 4 1 6 1 7l182 -146l-73 -73l-73 49v-231c0 -10 -8 -18 -18 -18h-182z"/>
    <glyph glyph-name="glyph283" unicode="&#57533;" d="M64 -32l64 470v42h277v-42l64 -470h-149l-43 342h-21l-43 -342h-149z"/>
    <glyph glyph-name="glyph284" unicode="&#57534;" d="M169 12c-5 0 -9 4 -9 9v212c0 5 -3 4 -5 0l-82 -134c-9 -11 -15 -29 -37 -26c-19 4 -45 19 -32 44c1 2 3 3 3 4l110 219c2 4 10 9 14 11l81 34v42c0 5 5 9 10 9h71c5 0 8 -4 8 -9v-42l83 -34c4 -2 11 -7 13 -11l111 -219c0 -2 3 -10 4 -13c3 -16 -7 -23 -19 -29 c-11 -6 -24 -9 -34 -1c-7 6 -12 14 -18 21l-82 134c-1 3 -5 6 -5 0v-212c0 -5 -3 -9 -8 -9h-177z"/>
    <glyph glyph-name="glyph285" unicode="&#57535;" d="M5 79l49 49l-49 48l49 48l-49 49l49 48l-49 48l58 59l50 -49l48 49l48 -49l49 49l48 -49l48 49l49 -49l49 49l58 -59l-48 -48l48 -48l-48 -49l48 -48l-48 -48l48 -49l-58 -59l-49 49l-49 -49l-48 49l-48 -49l-49 49l-48 -49l-48 49l-50 -49z"/>
    <glyph glyph-name="glyph286" unicode="&#57536;" d="M33 76c33 20 53 69 47 124c-4 35 -23 64 -47 80c-13 60 7 93 39 120c37 -17 73 -22 100 1c17 15 31 36 38 58l4 13h104c8 -36 31 -70 64 -82c28 -8 54 -2 78 10c33 -27 53 -59 40 -120c-30 -19 -49 -56 -47 -104c2 -44 19 -81 47 -99c-2 -41 -30 -81 -68 -86 c-32 24 -66 49 -111 33c-15 -5 -29 -13 -45 -27h-20c-16 14 -33 24 -52 30c-14 4 -33 1 -45 -2c-10 -3 -30 -14 -37 -19c-4 -3 -13 -10 -21 -15c-38 5 -66 44 -68 85zM267 436c-20 0 -37 -16 -37 -36s17 -36 37 -36s35 16 35 36s-15 36 -35 36z"/>
    <glyph glyph-name="glyph287" unicode="&#57537;" d="M238 134v38l-75 30c-7 9 -25 27 -51 53c-25 25 -42 54 -44 97c-1 24 5 44 14 58l2 4l154 -156v221c34 -8 58 -29 74 -56c11 -18 19 -46 19 -75v-76l-29 -75l30 -27c8 26 30 44 62 42c19 -1 37 -9 50 -22l18 -17c26 -26 31 -70 4 -97c-12 -12 -26 -19 -44 -19 c-23 0 -41 11 -53 23l-72 70l-14 5l-9 -12v-99c0 -38 -28 -72 -65 -72s-66 34 -66 72v25c0 38 29 72 66 72c6 0 29 -2 29 -7zM209 103c-17 0 -28 -17 -28 -34v-25c0 -17 11 -34 28 -34s29 17 29 34v25c0 17 -12 34 -29 34zM392 175c-15 0 -27 -10 -26 -26 c1 -10 5 -18 12 -25l18 -17c7 -8 16 -12 26 -12c16 0 26 12 25 28c-1 10 -4 16 -11 23l-18 18c-8 8 -16 11 -26 11z"/>
    <glyph glyph-name="glyph288" unicode="&#57538;" d="M256 343c76 -24 128 -86 128 -180c0 -57 -26 -106 -56 -136s-78 -56 -136 -56c-57 0 -106 26 -136 56s-56 78 -56 136c0 45 19 85 40 112c22 29 53 54 88 68v52h53c0 42 22 75 57 82c45 9 78 -22 92 -54c13 -30 35 -42 72 -27l-37 11l55 16l-27 51l50 -28l17 56l16 -56 l51 28l-28 -51l56 -16l-56 -16l28 -51l-51 27l-16 -55l-17 55l-50 -27l20 38c-14 -6 -27 -10 -40 -10c-6 0 -12 1 -18 2c-20 6 -35 20 -45 44c-7 17 -17 28 -30 35c-28 15 -58 5 -69 -15c-5 -9 -8 -24 -8 -39h53v-52z"/>
    <glyph glyph-name="glyph289" unicode="&#57539;" d="M42 288c-4 44 9 85 27 113c14 22 38 42 64 55c30 15 76 24 123 24c71 0 124 -17 161 -49c32 -27 49 -67 54 -118c1 -7 0 -14 0 -18v-7l-23 -42l-21 -107l-75 -21l-25 -43h-142l-25 43l-75 21l-21 107zM107 96h21l64 -64h128l64 64h21l-42 -106h-22l-21 -22h-128l-21 22 h-22zM156 267c-15 0 -28 -13 -28 -28v-30c0 -15 13 -27 28 -27h21c17 0 32 13 37 26l11 33c5 16 -4 26 -18 26h-51zM225 135c-7 -10 -2 -17 10 -17h42c11 0 17 7 10 17l-19 29c-3 5 -7 7 -12 7s-9 -2 -12 -7zM384 239c0 15 -13 28 -28 28h-51c-14 0 -23 -11 -18 -26l11 -33 c5 -13 20 -26 37 -26h21c15 0 28 12 28 27v30z"/>
    <glyph glyph-name="glyph290" unicode="&#57540;" d="M0 246h256l-107 -118v-138h64v-22h-170v22h64v138zM299 -32c-12 0 -22 10 -22 22v256c-6 2 -4 9 7 23s16 21 16 21l19 18c10 10 22 26 22 44v64h107v-64c-6 -2 -4 -9 7 -23s16 -21 16 -21l18 -18c10 -10 23 -26 23 -44v-256c0 -12 -9 -22 -21 -22h-192zM427 502 c12 0 21 -10 21 -22v-42h-107v42c0 12 10 22 22 22h64z"/>
    <glyph glyph-name="glyph291" unicode="&#57541;" d="M468 203c-11 0 -19 9 -20 19v-62c36 -32 58 -68 64 -106c0 -33 -15 -54 -34 -68c-14 -10 -30 -15 -51 -18h-310l-146 167l32 32l93 -60c10 27 30 52 53 69v42c-5 -13 -22 -20 -34 -9c-7 6 -8 15 -8 27c0 135 61 223 192 223s192 -88 192 -223c0 -18 -4 -33 -22 -33h-1z M448 236c0 113 -41 180 -149 180c-107 0 -148 -66 -149 -177c2 5 5 7 10 7c6 0 11 -5 11 -11v-46c13 7 27 11 42 14v21h171v-21c13 -6 27 -14 43 -26v58c0 6 4 11 10 11c5 0 10 -5 11 -10zM299 336c14 0 25 -12 25 -26c0 -9 -4 -17 -12 -22c26 0 72 -18 72 -42h-171 c0 6 5 12 12 19c13 12 37 23 60 23c-8 5 -12 13 -12 22c0 14 12 26 26 26z"/>
    <glyph glyph-name="glyph292" unicode="&#57542;" d="M149 -32c-35 0 -64 29 -64 64v278l-64 64h384v-22h38c26 0 50 -10 58 -29c6 -14 3 -38 0 -56c-7 -39 -20 -79 -43 -102c-21 -21 -39 -51 -53 -88v-45c0 -35 -29 -64 -64 -64h-192zM363 438c17 0 42 -7 42 -22v-21h-320v21c0 15 26 22 43 22h107v21c-17 0 -43 6 -43 21 s26 22 43 22h21c17 0 43 -7 43 -22s-26 -21 -43 -21v-21h107zM405 168c7 9 14 18 23 27c18 17 27 50 27 84c0 12 -2 31 -12 31h-38v-142z"/>
    <glyph glyph-name="glyph293" unicode="&#57543;" d="M8 44h461l-47 -40l-14 -9c-8 -5 -24 -11 -36 -11h-268c-12 0 -28 6 -36 11c-22 14 -40 33 -60 49zM108 64c-33 0 -60 28 -60 61v240h380v-60h20c33 0 60 -27 60 -60v-41c0 -33 -27 -60 -60 -60h-20v-19c0 -33 -27 -61 -60 -61h-260zM206 288c-25 0 -49 -23 -49 -48 c0 -18 14 -31 22 -40l15 -14c18 -18 31 -33 39 -44l5 -7l4 7c8 11 22 26 40 44c13 13 15 14 25 27c7 8 11 15 11 27c0 25 -22 48 -47 48c-13 0 -23 -6 -32 -16c-9 10 -20 16 -33 16zM469 245c0 11 -10 19 -21 19h-20v-79h20c11 0 21 8 21 19v41z"/>
    <glyph glyph-name="glyph294" unicode="&#57544;" d="M85 -10c-23 0 -42 19 -42 42v194l-56 41c-3 3 -8 9 -8 14s5 7 10 7h54v43h448v-43h53c5 0 11 -2 11 -7s-6 -11 -9 -14l-55 -41v-194c0 -23 -20 -42 -43 -42h-363zM32 352c-6 0 -11 5 -11 11s5 11 11 11h11c0 31 50 42 85 42h85v32c0 6 5 11 11 11h85c6 0 11 -5 11 -11 v-32h85c35 0 86 -11 86 -42h10c6 0 11 -5 11 -11s-5 -11 -11 -11h-469z"/>
    <glyph glyph-name="glyph295" unicode="&#57545;" d="M363 480c47 0 85 -38 85 -85v-427h-43v43h-298v-43h-43v427c0 47 38 85 85 85h214zM125 149c-13 7 -27 -4 -21 -17l13 -26l13 26c3 8 1 14 -5 17zM104 260l13 -26l13 26c4 10 -4 20 -13 20s-17 -10 -13 -20zM128 438c-12 0 -21 -10 -21 -22v-42h298v42c0 12 -9 22 -21 22 h-256zM131 85c-7 -3 -9 -9 -6 -17l13 -26l14 26c3 8 1 14 -5 17c-5 3 -11 3 -16 0zM147 341c-13 7 -28 -4 -22 -17l13 -26l14 26c3 8 1 14 -5 17zM125 196l13 -26l14 26c4 10 -5 20 -14 20s-17 -10 -13 -20zM168 149c-13 7 -27 -4 -21 -17l13 -26l13 26c3 8 1 14 -5 17z M168 277c-13 7 -27 -4 -21 -17l13 -26l13 26c3 8 1 14 -5 17zM167 329c0 -2 0 -3 1 -5l13 -26l13 26c3 7 1 12 -5 16c-11 7 -22 0 -22 -11zM173 85c-7 -3 -8 -9 -5 -17l13 -26l13 26c3 8 1 14 -5 17c-5 3 -11 3 -16 0zM168 196l13 -26l13 26c4 10 -4 20 -13 20 s-17 -10 -13 -20zM211 149c-13 7 -28 -4 -22 -17l13 -26l14 26c3 8 1 14 -5 17zM211 277c-13 7 -28 -4 -22 -17l13 -26l14 26c3 8 1 14 -5 17zM209 329c0 -2 1 -3 2 -5l13 -26l13 26c3 7 1 12 -5 16c-11 7 -23 0 -23 -11zM216 85c-7 -3 -8 -9 -5 -17l13 -26l13 26 c3 8 1 14 -5 17c-5 3 -11 3 -16 0zM211 196l13 -26l13 26c4 10 -4 20 -13 20s-17 -10 -13 -20zM253 149c-13 7 -27 -4 -21 -17l13 -26l13 26c3 8 1 14 -5 17zM253 277c-13 7 -27 -4 -21 -17l13 -26l13 26c3 8 1 14 -5 17zM252 329c0 -2 0 -3 1 -5l13 -26l14 26 c3 7 1 12 -5 16c-11 7 -23 0 -23 -11zM259 85c-7 -3 -9 -9 -6 -17l13 -26l14 26c3 8 1 14 -5 17c-5 3 -11 3 -16 0zM253 196l13 -26l14 26c4 10 -5 20 -14 20s-17 -10 -13 -20zM296 149c-13 7 -27 -4 -21 -17l13 -26l13 26c3 8 1 14 -5 17zM296 277c-13 7 -27 -4 -21 -17 l13 -26l13 26c3 8 1 14 -5 17zM295 329c0 -2 0 -3 1 -5l13 -26l13 26c3 7 1 12 -5 16c-11 7 -22 0 -22 -11zM301 85c-7 -3 -8 -9 -5 -17l13 -26l13 26c3 8 1 14 -5 17c-5 3 -11 3 -16 0zM296 196l13 -26l13 26c4 10 -4 20 -13 20s-17 -10 -13 -20zM339 149 c-13 7 -28 -4 -22 -17l13 -26l14 26c3 8 1 14 -5 17zM339 277c-13 7 -28 -4 -22 -17l13 -26l14 26c3 8 1 14 -5 17zM337 329c0 -2 1 -3 2 -5l13 -26l13 26c3 7 1 12 -5 16c-11 7 -23 0 -23 -11zM344 85c-7 -3 -8 -9 -5 -17l13 -26l13 26c3 8 1 14 -5 17c-5 3 -11 3 -16 0z M339 196l13 -26l13 26c4 10 -4 20 -13 20s-17 -10 -13 -20zM381 149c-13 7 -27 -4 -21 -17l13 -26l13 26c3 8 1 14 -5 17zM381 277c-13 7 -27 -4 -21 -17l13 -26l13 26c3 8 1 14 -5 17zM387 85c-7 -3 -9 -9 -6 -17l13 -26l14 26c3 8 1 14 -5 17c-5 3 -11 3 -16 0zM403 213 c-13 7 -28 -4 -22 -17l13 -26l14 26c3 8 1 14 -5 17zM403 341c-13 7 -28 -4 -22 -17l13 -26l14 26c3 8 1 14 -5 17z"/>
    <glyph glyph-name="glyph296" unicode="&#57546;" d="M128 54c-23 0 -43 19 -43 42v125l-64 195h86c24 28 64 47 109 55c13 2 26 3 40 3c92 0 174 -20 220 -68c18 -19 32 -47 32 -82c0 -54 -19 -93 -40 -126c-13 -20 -28 -38 -42 -55c-6 -8 -11 -14 -15 -21s-6 -12 -6 -17c3 -16 0 -33 -9 -41c-7 -6 -19 -10 -33 -10h-235z M43 -32l42 43v21h320v-21l43 -43h-405zM341 310c0 21 -12 42 -32 42c-14 0 -22 -11 -27 -21h17v-21h-22v-22h22v-21h-22v-21h22v-22h-22v-21h22v-21h-22v-22h22v-21h-17c5 -10 13 -21 27 -21c20 0 32 21 32 42v150zM405 219c10 9 22 19 31 29c8 9 10 15 15 27s7 27 7 44 c0 37 -19 56 -53 58v-158z"/>
    <glyph glyph-name="glyph297" unicode="&#57547;" d="M53 -32c-29 0 -53 25 -53 54v405c0 29 24 53 53 53h406c29 0 53 -24 53 -53v-405c0 -29 -24 -54 -53 -54h-406zM64 160h128v-128h128v128h128v128h-128v128h-128v-128h-128v-128z"/>
    <glyph glyph-name="glyph298" unicode="&#57548;" d="M53 -32c-29 0 -53 25 -53 54v405c0 29 24 53 53 53h406c29 0 53 -24 53 -53v-405c0 -29 -24 -54 -53 -54h-406zM85 32h107v171h128v-171h107v384h-107v-128h-128v128h-107v-384z"/>
    <glyph glyph-name="glyph299" unicode="&#57549;" d="M437 310c6 0 11 -5 11 -11s-5 -11 -10 -12l-11 -2v-82c0 -51 -23 -86 -51 -110c-17 -15 -34 -26 -56 -33v-25l64 -29v-38h-235v38l64 29v25c-34 11 -62 34 -81 61c-14 20 -25 49 -25 82v82l-11 2c-5 1 -11 6 -11 12s5 11 11 11h53v-107c0 -47 23 -76 53 -93 c18 -10 40 -17 66 -17c32 0 60 15 79 31c19 17 37 45 37 79v107h53zM171 216v72h192v-72c0 -15 -6 -27 -13 -39c-15 -27 -41 -49 -83 -49s-69 22 -84 49c-7 12 -12 24 -12 39zM171 310v74c0 39 22 69 48 84c15 9 31 12 48 12c39 0 68 -21 83 -47c9 -15 13 -32 13 -49v-74 h-192zM213 186c-5 8 -10 20 -10 30v51h-11v-51c0 -15 12 -35 21 -45v15zM192 331h11v53c0 13 3 26 10 38v14c-14 -15 -21 -32 -21 -52v-53z"/>
    <glyph glyph-name="glyph300" unicode="&#57550;" d="M215 98c-73 20 -135 91 -135 180c0 54 25 99 54 128c29 30 74 55 127 58v-127c-38 -5 -76 -39 -76 -81s37 -75 76 -80v-80h11v80c39 5 77 38 77 80s-39 76 -77 81v127c53 -3 99 -28 128 -58c29 -29 54 -74 54 -128c0 -88 -64 -160 -136 -180l115 -114c8 -8 6 -16 -6 -16 h-43c-13 0 -29 9 -36 16l-34 33c-7 7 -24 15 -37 15h-21c-13 0 -29 -8 -36 -15l-34 -33c-7 -7 -24 -16 -37 -16h-42c-12 0 -15 8 -7 16zM327 256c0 -33 -27 -60 -60 -60c-32 0 -57 25 -60 55c7 -4 14 -7 23 -7c27 0 49 22 49 49c0 9 -3 17 -7 24c30 -3 55 -29 55 -61z"/>
    <glyph glyph-name="glyph301" unicode="&#57551;" d="M0 246v21l85 84v65h-42v22h42v42h22v-42h42v-22h-42v-65l85 -84v-21h-21v-150h320v-128h21v-21h-491v299h-21zM192 118v85h235l64 -64v-21h-299zM213 -10h22v64h-22v-64zM256 -10h21v64h-21v-64zM299 -10h21v64h-21v-64zM341 -10h22v64h-22v-64zM384 -10h21v64h-21v-64z M427 -10h21v64h-21v-64z"/>
    <glyph glyph-name="glyph302" unicode="&#57552;" d="M18 232c-6 0 -10 4 -10 10v20c0 6 4 10 10 10h9v41h-9c-6 0 -10 3 -10 9v10l49 121l51 -121v-10c0 -6 -4 -9 -10 -9h-10v-41h10c6 0 10 -4 10 -10v-20c0 -6 -4 -10 -10 -10h-10v-120h20v21h20v60h1c6 50 48 84 95 95l24 25v30c0 6 4 9 10 9s10 -3 10 -9v-30l24 -25 c47 -11 90 -45 96 -95v-60h20v-21h20v120h-10c-6 0 -10 4 -10 10v20c0 6 4 10 10 10h10v41h-10c-6 0 -10 3 -10 9v10l50 121l50 -121v-10c0 -6 -3 -9 -9 -9h-11v-41h11c6 0 9 -4 9 -10v-20c0 -6 -3 -10 -9 -10h-11v-260h-461v260h-9zM88 12h20v60h-20v-60zM128 12h20v60h-20 v-60zM168 12h20v60h-20v-60zM328 12h20v60h-20v-60zM368 12h20v60h-20v-60zM408 12h20v60h-20v-60z"/>
    <glyph glyph-name="glyph303" unicode="&#57553;" d="M0 -53v128h512v-128h-512zM43 96v43h42l86 256v43h42v21h86v-21h42v-43l86 -256h42v-43h-426zM235 182h42v64h-42v-64zM235 288h42v43h-42v-43zM235 352h42v22h-42v-22z"/>
    <glyph glyph-name="glyph304" unicode="&#57554;" d="M-43 203v21h22c7 0 19 5 36 14s32 18 47 28s22 18 23 22v22h-85v21h21c6 0 19 4 36 11c20 8 56 25 71 32v21h-43v21h22c6 0 16 4 30 11c18 9 42 24 55 32h128c0 8 6 -4 17 -11s24 -14 38 -21s24 -11 30 -11h22v-21h-43v-21c15 -7 51 -24 71 -32c17 -7 30 -11 36 -11h21 v-21h-85v-22c1 -4 8 -12 23 -22s30 -19 47 -28s29 -14 36 -14h22v-21h-107v-107h64v-106h-512v106h64v107h-107zM107 139h42v64h-42v-64zM192 139h43v64h-43v-64zM277 139h43v64h-43v-64zM363 139h42v64h-42v-64z"/>
    <glyph glyph-name="glyph305" unicode="&#57555;" d="M413 58c-51 0 -92 39 -99 84h-33c-5 0 -9 1 -12 4l-115 116l-6 -17c27 -16 51 -48 51 -88s-23 -70 -50 -86c-16 -9 -32 -13 -50 -13c-40 0 -71 23 -87 50c-9 16 -13 31 -13 49c0 40 22 71 49 87c16 9 33 13 51 13c5 0 12 0 18 -1l24 67h-26c-9 0 -16 8 -16 17s7 17 16 17 h44c14 0 25 -9 20 -24l-9 -26h147l20 50h-23c-7 0 -17 2 -17 8s11 11 17 12l66 11c9 2 17 -5 17 -14s-8 -17 -17 -17h-9v-4l-21 -55l28 -47c12 5 23 6 35 6c40 0 71 -22 87 -49c9 -16 13 -33 13 -51c0 -40 -23 -70 -50 -86c-16 -9 -32 -13 -50 -13zM32 157 c0 -36 31 -66 67 -66s67 30 67 66c0 25 -14 45 -30 56l-22 -61c-2 -6 -7 -11 -15 -11c-11 0 -21 10 -16 22l22 61c-1 0 -5 1 -6 1c-36 0 -67 -32 -67 -68zM188 274l86 -86l32 86h-118zM349 234l-14 24l-31 -84h11c4 26 17 46 34 60zM430 158c0 -9 -8 -16 -17 -16h-64 c7 -27 31 -51 64 -51c36 0 67 30 67 66s-31 68 -67 68c-5 0 -10 -1 -17 -3l30 -52c1 -2 4 -10 4 -12zM349 174h36l-19 31c-9 -9 -14 -19 -17 -31z"/>
    <glyph glyph-name="glyph306" unicode="&#57556;" d="M4 224c0 74 33 137 74 178s101 74 178 74c76 0 137 -33 178 -74s74 -103 74 -178s-33 -137 -74 -178s-101 -73 -178 -73s-137 32 -178 73s-74 103 -74 178zM39 224c0 -35 8 -69 24 -100l57 42c-8 18 -12 38 -12 58s4 40 12 58l-57 42c-16 -31 -24 -65 -24 -100zM146 254 c-13 -47 7 -87 30 -110c19 -19 45 -33 80 -33s61 14 80 33s33 45 33 80s-14 62 -33 81s-45 33 -80 33s-61 -14 -80 -33c-15 -15 -25 -32 -30 -51zM156 31c31 -16 65 -24 100 -24s69 8 100 24l-42 58c-18 -8 -38 -12 -58 -12s-40 4 -58 12zM156 418l42 -58c18 8 38 12 58 12 s40 -4 58 -12l42 58c-31 16 -65 24 -100 24s-69 -8 -100 -24zM392 166l57 -42c16 31 24 65 24 100s-8 69 -24 100l-57 -42c8 -18 12 -38 12 -58s-4 -40 -12 -58z"/>
    <glyph glyph-name="glyph307" unicode="&#57557;" d="M107 120c-57 0 -105 47 -105 104s48 105 105 105c37 0 65 -19 82 -41l133 78c-2 7 -2 13 -2 18c0 41 34 75 75 75s74 -34 74 -75s-33 -74 -74 -74c-19 0 -37 7 -51 20l-136 -81c2 -9 3 -17 3 -25c0 -7 -1 -15 -3 -24l137 -81c14 13 31 20 50 20c41 0 74 -34 74 -75 s-33 -74 -74 -74s-75 33 -75 74c0 6 1 12 3 19l-134 78c-17 -23 -45 -41 -82 -41z"/>
    <glyph glyph-name="glyph308" unicode="&#57558;" d="M64 96c-35 0 -64 29 -64 64v235c0 35 29 64 64 64h384c35 0 64 -29 64 -64v-235c0 -35 -29 -64 -64 -64h-213l-128 -128v128h-43z"/>
    <glyph glyph-name="glyph309" unicode="&#57559;" d="M368 371c-3 30 -8 64 -23 82c11 0 24 -1 33 -2c1 -11 5 -43 2 -56c16 0 32 0 46 -1c11 -73 -11 -126 -54 -157c-22 -16 -46 -26 -73 -29v-164l49 49c-3 15 -4 32 2 46c8 19 23 34 43 41c22 8 52 14 76 21c0 -47 -9 -86 -32 -108c-14 -13 -32 -22 -59 -18 c-5 1 -11 2 -16 3l-63 -64v-46h-64v46l-64 64c-16 -5 -39 -5 -55 2c-15 6 -28 20 -36 35c-11 21 -16 53 -16 86c23 -7 51 -12 73 -19c17 -5 25 -13 35 -26c13 -17 19 -35 13 -63l50 -49v164c-27 3 -52 13 -74 29c-43 31 -64 84 -53 157c14 1 30 1 46 1c-2 14 -1 33 0 46 l1 10c9 2 21 2 34 2c-10 -13 -21 -46 -23 -67l-1 -15l21 -5c28 -7 47 -23 57 -47l24 -58l23 58c10 24 29 40 57 47zM267 335c-12 31 -34 48 -69 57c3 36 27 63 46 83c6 6 12 12 16 15l7 5c23 -17 45 -42 59 -70c5 -11 8 -22 9 -33c-35 -9 -56 -26 -68 -57z"/>
    <glyph glyph-name="glyph310" unicode="&#57560;" d="M7 36c0 3 1 5 3 7l11 11c2 2 5 3 8 3s5 -1 7 -3l11 -11l125 126c9 9 24 34 30 45c3 6 8 16 16 31c11 22 50 80 66 96l129 129c8 8 16 11 27 11s20 -4 27 -11l46 -45c7 -7 11 -16 11 -27c0 -10 -4 -19 -11 -27l-130 -130c-16 -16 -74 -55 -96 -66c-26 -13 -33 -16 -55 -30 c-9 -6 -16 -11 -21 -16l-125 -125l10 -10c2 -2 3 -5 3 -8s-1 -5 -3 -7l-10 -11c-2 -2 -5 -3 -8 -3s-5 1 -7 3l-61 60c-2 2 -3 5 -3 8zM448 -13c-37 0 -67 30 -67 67s30 66 67 66s67 -29 67 -66s-30 -67 -67 -67z"/>
    <glyph glyph-name="glyph311" unicode="&#57561;" d="M43 -4c-26 26 -26 88 -16 140c61 -43 110 -94 152 -156c-51 -9 -111 -9 -136 16zM249 -1c-50 86 -117 156 -201 209c41 104 117 180 219 222c62 -39 113 -85 157 -142c25 -33 35 -47 51 -76c-44 -101 -121 -173 -226 -213zM127 300c-8 0 -15 -7 -15 -15c0 -4 1 -7 4 -10 l19 -19l-12 -12c-3 -3 -4 -6 -4 -10c0 -8 7 -15 15 -15c4 0 7 1 10 4l12 12l19 -19c3 -3 6 -4 10 -4c8 0 15 7 15 15c0 4 -1 7 -4 10l-19 19l22 22l18 -19c3 -3 7 -5 11 -5c8 0 15 7 15 15c0 4 -1 8 -4 11l-19 19l21 21l19 -19c3 -3 7 -4 11 -4c8 0 14 7 14 15 c0 4 -1 8 -4 11l-18 18l12 13c3 3 4 6 4 10c0 8 -6 15 -14 15c-4 0 -8 -1 -11 -4l-13 -13l-18 19c-3 3 -7 4 -11 4c-8 0 -15 -6 -15 -14c0 -4 2 -8 5 -11l18 -19l-21 -21l-19 18c-3 3 -7 5 -11 5c-8 0 -15 -7 -15 -15c0 -4 2 -8 5 -11l18 -18l-21 -22l-19 19 c-3 3 -6 4 -10 4zM356 455c50 8 106 7 130 -17c25 -25 25 -85 16 -136c-41 61 -87 110 -146 153z"/>
    <glyph glyph-name="glyph312" unicode="&#57562;" d="M4 52c8 25 24 49 41 66c34 33 69 69 107 107h2v26l73 76l65 -67c-113 -112 -177 -177 -195 -195c-12 -12 -29 -37 -35 -55l-5 -11zM225 353l93 93l187 -186c-15 -23 -35 -49 -58 -65c-13 -9 -33 -22 -51 -26c-20 -4 -43 -8 -64 -1c0 19 -3 54 -5 72l-2 14z"/>
    <glyph glyph-name="glyph313" unicode="&#57563;" d="M-14 44c19 15 58 50 75 66c11 10 19 19 25 34l40 22l43 -43l-22 -40c-18 -7 -29 -21 -42 -34s-47 -52 -58 -66c-5 0 -10 3 -16 7c-11 8 -32 28 -39 38c-4 6 -6 11 -6 16zM68 254c-3 52 21 103 71 153c45 45 123 85 206 54c50 -19 99 -68 118 -118 c32 -84 -9 -162 -53 -206c-23 -24 -49 -43 -75 -55s-52 -18 -79 -16zM416 -25c-25 0 -46 22 -46 47s21 46 46 46s46 -21 46 -46s-21 -47 -46 -47z"/>
    <glyph glyph-name="glyph314" unicode="&#57564;" d="M16 224c0 72 32 132 70 170s98 70 170 70s132 -32 170 -70s70 -98 70 -170s-32 -131 -70 -169s-98 -71 -170 -71s-132 33 -170 71s-70 97 -70 169zM288 337c-21 0 -38 -17 -38 -38s17 -38 38 -38s38 17 38 38s-17 38 -38 38zM352 401c-21 0 -38 -17 -38 -38 s17 -38 38 -38s38 17 38 38s-17 38 -38 38zM416 295c-21 0 -38 -18 -38 -39s17 -38 38 -38s38 17 38 38s-17 39 -38 39z"/>
    <glyph glyph-name="glyph315" unicode="&#57565;" d="M53 75c-6 0 -7 4 -3 8l101 99h-75c-6 0 -8 3 -4 7l102 99h-55c-6 0 -7 4 -3 8l101 99h-33c-6 0 -7 4 -3 8l78 76c2 2 5 3 8 3s5 -1 7 -3l79 -76c4 -4 3 -8 -3 -8h-34l101 -99c4 -4 4 -8 -2 -8h-55l101 -99c4 -4 3 -7 -3 -7h-76l101 -99c4 -4 3 -8 -3 -8h-160v-85l21 -22 h-149l21 22v85h-160z"/>
    <glyph glyph-name="glyph316" unicode="&#57566;" d="M89 206c-25 7 -46 30 -46 61c0 32 23 56 49 62c-4 11 -7 23 -7 34c0 39 22 68 48 83c15 9 31 13 48 13c5 0 12 -1 18 -2c10 24 35 45 68 45c39 0 71 -31 74 -68c7 3 15 4 22 4c35 0 64 -29 64 -64c0 -10 -3 -20 -8 -29c27 -12 50 -41 50 -78c0 -42 -30 -73 -64 -82 c2 -33 -12 -58 -36 -66c-20 -7 -38 5 -49 15v-144l21 -22h-149l21 22v136c-11 -15 -28 -29 -52 -28c-35 1 -59 24 -70 51c-7 17 -7 39 -2 57z"/>
    <glyph glyph-name="glyph317" unicode="&#57567;" d="M32 -32c-6 0 -11 5 -11 11v405c0 6 5 11 11 11h352v-416c0 -6 -5 -11 -11 -11h-341zM469 64c0 -6 -4 -10 -10 -10h-54v362h-298v54c0 6 5 10 11 10h341c6 0 10 -4 10 -10v-406z"/>
    <glyph glyph-name="glyph318" unicode="&#57568;" d="M-11 -53c-6 0 -10 5 -10 11v341c0 6 4 11 10 11h352v-352c0 -6 -4 -11 -10 -11h-342zM76 331c-6 0 -12 5 -12 11v42c0 6 6 11 12 11h340c6 0 11 -5 11 -11v-341c0 -6 -5 -11 -11 -11h-43c-6 0 -10 5 -10 11v288h-287zM161 416c-6 0 -12 5 -12 11v43c0 6 6 10 12 10h340 c6 0 11 -4 11 -10v-342c0 -6 -5 -10 -11 -10h-42c-6 0 -11 4 -11 10v288h-287z"/>
    <glyph glyph-name="glyph319" unicode="&#57569;" d="M64 430c-12 0 -21 9 -21 21v29h426v-29c0 -12 -9 -21 -21 -21h-384zM64 416h384l-149 -234v-128l-86 -86v214z"/>
    <glyph glyph-name="glyph320" unicode="&#57570;" d="M258 179c-11 -19 -32 -35 -60 -35c-11 0 -23 3 -34 9l-50 -73c-14 -20 -47 -49 -78 -46c-24 2 -37 33 -29 63l63 256c7 27 36 52 72 42l86 -30h60l85 30c34 10 66 -15 72 -42l63 -256c5 -22 2 -40 -9 -52c-15 -17 -38 -11 -60 2c-15 8 -29 20 -38 33l-51 73 c-10 -6 -21 -9 -32 -9c-28 0 -49 16 -60 35zM108 305h20v-21h20v21h20v19h-20v20h-20v-20h-20v-19zM198 252c-21 0 -37 -16 -37 -37s16 -38 37 -38s38 17 38 38s-17 37 -38 37zM318 252c-21 0 -37 -16 -37 -37s16 -38 37 -38s38 17 38 38s-17 37 -38 37zM338 333 c-9 0 -18 -10 -18 -19s9 -18 18 -18s18 9 18 18s-9 19 -18 19zM378 293c-9 0 -18 -9 -18 -18s9 -18 18 -18s18 9 18 18s-9 18 -18 18zM378 372c-9 0 -18 -9 -18 -18s9 -17 18 -17s18 8 18 17s-9 18 -18 18zM418 333c-9 0 -18 -10 -18 -19s9 -18 18 -18s19 9 19 18 s-10 19 -19 19z"/>
    <glyph glyph-name="glyph321" unicode="&#57571;" d="M64 -32c-35 0 -64 29 -64 64v192c0 35 29 64 64 64h192c35 0 64 -29 64 -64v-192c0 -35 -29 -64 -64 -64h-192zM75 81c-21 0 -39 -17 -39 -38s18 -38 39 -38s38 17 38 38s-17 38 -38 38zM75 252c-21 0 -39 -17 -39 -38s18 -39 39 -39s38 18 38 39s-17 38 -38 38zM160 167 c-21 0 -38 -18 -38 -39s17 -38 38 -38s38 17 38 38s-17 39 -38 39zM341 246c0 35 -29 64 -64 64h-77l128 128c12 12 27 18 45 18s33 -6 46 -18l135 -136c12 -13 19 -28 19 -46s-7 -33 -19 -45l-135 -136c-19 -18 -52 -26 -78 -10v64c6 -9 18 -18 32 -18c21 0 39 18 39 39 s-18 38 -39 38c-14 0 -26 -8 -32 -17v75zM245 81c-21 0 -38 -17 -38 -38s17 -38 38 -38s39 17 39 38s-18 38 -39 38zM245 252c-21 0 -38 -17 -38 -38s17 -39 38 -39s39 18 39 39s-18 38 -39 38zM373 401c-21 0 -38 -17 -38 -38s17 -38 38 -38s39 17 39 38s-18 38 -39 38z M480 295c-21 0 -38 -18 -38 -39s17 -38 38 -38s38 17 38 38s-17 39 -38 39z"/>
    <glyph glyph-name="glyph322" unicode="&#57572;" d="M107 -32c-35 0 -64 29 -64 64v384c0 35 29 64 64 64h320c35 0 64 -29 64 -64v-384c0 -35 -29 -64 -64 -64h-320zM111 75c-2 0 -4 -2 -4 -4v-34c0 -2 2 -5 4 -5h55c2 0 5 3 5 5v34c0 2 -3 4 -5 4h-55zM111 139c-2 0 -4 -2 -4 -4v-34c0 -2 2 -5 4 -5h55c2 0 5 3 5 5v34 c0 2 -3 4 -5 4h-55zM111 203c-2 0 -4 -2 -4 -4v-34c0 -2 2 -5 4 -5h55c2 0 5 3 5 5v34c0 2 -3 4 -5 4h-55zM111 267c-2 0 -4 -2 -4 -4v-34c0 -2 2 -5 4 -5h55c2 0 5 3 5 5v34c0 2 -3 4 -5 4h-55zM128 416c-12 0 -21 -9 -21 -21v-64c0 -12 9 -21 21 -21h277c12 0 22 9 22 21 v64c0 12 -10 21 -22 21h-277zM196 75c-2 0 -4 -2 -4 -4v-34c0 -2 2 -5 4 -5h56c2 0 4 3 4 5v34c0 2 -2 4 -4 4h-56zM196 139c-2 0 -4 -2 -4 -4v-34c0 -2 2 -5 4 -5h56c2 0 4 3 4 5v34c0 2 -2 4 -4 4h-56zM196 203c-2 0 -4 -2 -4 -4v-34c0 -2 2 -5 4 -5h56c2 0 4 3 4 5v34 c0 2 -2 4 -4 4h-56zM196 267c-2 0 -4 -2 -4 -4v-34c0 -2 2 -5 4 -5h56c2 0 4 3 4 5v34c0 2 -2 4 -4 4h-56zM282 75c-2 0 -5 -2 -5 -4v-34c0 -2 3 -5 5 -5h55c2 0 4 3 4 5v34c0 2 -2 4 -4 4h-55zM282 139c-2 0 -5 -2 -5 -4v-34c0 -2 3 -5 5 -5h55c2 0 4 3 4 5v34 c0 2 -2 4 -4 4h-55zM282 203c-2 0 -5 -2 -5 -4v-34c0 -2 3 -5 5 -5h55c2 0 4 3 4 5v34c0 2 -2 4 -4 4h-55zM282 267c-2 0 -5 -2 -5 -4v-34c0 -2 3 -5 5 -5h55c2 0 4 3 4 5v34c0 2 -2 4 -4 4h-55zM367 203c-2 0 -4 -2 -4 -4v-162c0 -2 2 -5 4 -5h55c2 0 5 3 5 5v162 c0 2 -3 4 -5 4h-55zM367 267c-2 0 -4 -2 -4 -4v-34c0 -2 2 -5 4 -5h55c2 0 5 3 5 5v34c0 2 -3 4 -5 4h-55z"/>
    <glyph glyph-name="glyph323" unicode="&#57573;" d="M128 54l70 299l-47 81l94 47l94 -47l-47 -81l71 -299l-118 -107z"/>
    <glyph glyph-name="glyph324" unicode="&#57574;" d="M0 11c-12 0 -21 9 -21 21v299c0 21 21 43 42 43h128v-107c0 -23 20 -43 43 -43h64c23 0 43 20 43 43v107h149c12 0 21 -10 21 -22v-298c0 -21 -21 -43 -42 -43h-427zM32 395l21 21h139l-21 -21h-139zM192 246c-12 0 -21 9 -21 21v106c35 35 52 53 53 54c5 6 13 10 22 11 h74c12 0 21 -10 21 -22h-21c-28 -29 -43 -43 -43 -43v-106c0 -12 -9 -21 -21 -21h-64zM224 321c-12 0 -22 -10 -22 -22s10 -22 22 -22s22 10 22 22s-10 22 -22 22zM491 374c0 12 -10 21 -22 21h-149l21 21h139c18 0 32 -14 32 -32v-298l-21 -22v310z"/>
    <glyph glyph-name="glyph325" unicode="&#57575;" d="M85 -32c-35 0 -64 29 -64 64v384c0 35 29 64 64 64h363c35 0 64 -29 64 -64v-384c0 -35 -29 -64 -64 -64h-363zM64 11h85v128h-21v192h-64v-320zM171 11h85v128h-21v192h-43v-192h-21v-128zM277 11h86v128h-22v192h-42v-192h-22v-128zM384 11h85v320h-64v-192h-21v-128z "/>
    <glyph glyph-name="glyph326" unicode="&#57576;" d="M4 109c0 2 -1 10 -1 13c0 16 4 27 20 27h376c18 0 18 -14 18 -32v-59c0 -21 2 -41 -22 -40h-372c-14 0 -19 9 -19 23v68zM327 168h-223c-4 3 -10 7 -18 13l-46 35c-4 3 -8 7 -8 13c0 14 9 23 15 31c15 21 28 37 40 54c4 7 7 13 17 13c4 0 10 -1 14 -4 c70 -51 139 -104 209 -155zM187 344c-5 14 -18 44 4 50c16 5 54 18 68 23c9 4 17 7 27 7c9 0 14 -4 17 -12c4 -12 7 -22 9 -28l74 -223c-12 9 -22 16 -28 20l-33 25c-54 39 -95 69 -121 88zM351 111c-15 0 -28 -13 -28 -28s13 -28 28 -28s28 13 28 28s-13 28 -28 28z M330 202l-3 2c1 -1 2 -1 3 -2zM363 362l11 36c4 12 6 27 22 27c4 0 8 -1 13 -3c11 -4 22 -7 31 -10l52 -16c18 -6 11 -28 6 -43c-1 -4 -3 -5 -3 -7c-16 -50 -39 -124 -71 -224c-18 57 -39 122 -63 194c-2 4 -8 14 -6 20c4 10 5 18 8 26zM358 181l2 -1z"/>
    <glyph glyph-name="glyph327" unicode="&#57577;" d="M0 11v235h149v21h-138l74 64h64v21h171v-149h128v-192h-448zM64 75h85v21h-64v22h22v21h21v21h21v22l-21 21h-64v-21h43l21 -22h-21v-21h-22v-21h-21v-43zM160 374l64 64h181v-150h128v-202l-64 -64v202h-128v150h-181zM213 288h22v-106h21v128h-43v-22zM320 32h64l21 22 v42h-21v22h21v21l-21 21h-64v-21h43l21 -21h-64v-22h64v-21l-21 -21h-43v-22z"/>
    <glyph glyph-name="glyph328" unicode="&#57578;" d="M0 226c0 62 22 113 50 151c31 41 73 75 126 93c26 9 53 13 81 13c51 0 96 -15 130 -35c56 -33 99 -85 118 -154c6 -22 9 -45 9 -68c0 -62 -21 -114 -49 -152c-31 -41 -74 -75 -127 -93c-26 -9 -53 -13 -81 -13c-62 0 -114 22 -152 50c-41 31 -74 74 -92 127 c-9 26 -13 53 -13 81zM43 226c0 -44 12 -84 36 -120l16 31l62 -21l23 -62l-28 -15c33 -18 68 -28 105 -28c35 0 69 9 100 25l-34 18l23 62l63 21l19 -40c29 38 44 81 44 129c0 13 -2 26 -4 39l-26 -31l-58 45l3 72l43 1c-28 38 -63 64 -107 78l14 -26l-81 -33l-81 34l13 24 c-43 -15 -77 -41 -104 -77l41 -1l3 -72l-58 -45l-24 28c-2 -13 -3 -24 -3 -36zM175 253l81 58l81 -57l-31 -94h-100z"/>
    <glyph glyph-name="glyph329" unicode="&#57579;" d="M32 11c-6 0 -11 5 -11 11s5 10 11 10h11v22h-11c-6 0 -11 4 -11 10s5 11 11 11h11v21h-11c-6 0 -11 5 -11 11s5 11 11 11h11v21h-11c-6 0 -11 5 -11 11s5 10 11 10h11v22h-11c-6 0 -11 4 -11 10s5 11 11 11h11v21h-11c-6 0 -11 5 -11 11s5 11 11 11h11v21h-11 c-6 0 -11 5 -11 11s5 10 11 10h11v22h-11c-6 0 -11 4 -11 10s5 11 11 11h11v21h-11c-6 0 -11 5 -11 11s5 11 11 11h11v48l53 37h288c53 0 85 -33 85 -85v-278l-21 -42v320c0 38 -26 64 -64 64h-275l-29 -22h283c35 0 64 -29 64 -64v-320c0 -35 -29 -64 -64 -64h-320v43h-11z "/>
    <glyph glyph-name="glyph330" unicode="&#57580;" d="M5 225c0 50 15 94 34 127c32 55 84 96 151 115c22 6 43 10 66 10c79 0 137 -33 178 -74c30 -30 52 -66 65 -111c6 -22 9 -44 9 -67c0 -50 -15 -94 -34 -127c-32 -55 -84 -97 -151 -116c-22 -6 -44 -9 -67 -9c-50 0 -94 15 -127 34c-55 32 -96 84 -115 151 c-6 22 -9 44 -9 67zM59 225c0 -59 27 -109 58 -140s80 -57 139 -57s109 26 140 57s58 81 58 140s-27 108 -58 139s-81 58 -140 58s-108 -27 -139 -58s-58 -80 -58 -139zM108 224c-12 0 -22 10 -22 22s10 21 22 21s21 -9 21 -21s-9 -22 -21 -22zM129 288c-12 0 -21 10 -21 22 s9 21 21 21s21 -9 21 -21s-9 -22 -21 -22zM399 118c-29 -39 -79 -72 -143 -72s-114 33 -143 72h85c17 -16 35 -24 58 -24s43 8 59 24h84zM193 331c-12 0 -21 9 -21 21s9 22 21 22s21 -10 21 -22s-9 -21 -21 -21zM256 139c-21 0 -39 18 -39 39c0 20 15 36 33 39l58 85 c4 6 12 3 10 -4l-30 -97c5 -7 8 -15 8 -23c0 -21 -19 -39 -40 -39zM257 352c-12 0 -21 10 -21 22s9 21 21 21s21 -9 21 -21s-9 -22 -21 -22zM321 331c-12 0 -21 9 -21 21s9 22 21 22s21 -10 21 -22s-9 -21 -21 -21zM385 288c-12 0 -21 10 -21 22s9 21 21 21s21 -9 21 -21 s-9 -22 -21 -22zM406 224c-12 0 -21 10 -21 22s9 21 21 21s22 -9 22 -21s-10 -22 -22 -22z"/>
    <glyph glyph-name="glyph331" unicode="&#57581;" d="M89 251l28 48l-28 48l48 27l-1 56l56 -1l27 48l48 -28l47 28l28 -48l55 1l-1 -56l49 -27l-29 -48l29 -48l-49 -27l1 -55l-55 1l-28 -49l-47 29l-48 -29l-27 49l-56 -1l1 55zM133 336l21 -34l-10 -14l36 28l-14 20l24 13l-1 27h27l12 23l22 -14l27 37l-14 -11l-32 22 l-20 -36h-42v-41zM149 -53v190h24l34 -61l60 36l59 -36l34 61h24v-190l-117 107z"/>
    <glyph glyph-name="glyph332" unicode="&#57582;" d="M467 121c12 0 21 -9 21 -21c0 -13 -10 -24 -20 -28c-19 -8 -58 -16 -84 -21c-33 -7 -86 -13 -128 -13c-63 0 -125 9 -173 22c-14 3 -22 7 -29 9l-10 3c-10 4 -20 15 -20 28c0 12 9 21 21 21h8l52 62l27 145c9 50 49 90 97 101v1l-8 23c-4 12 4 19 15 19h40 c11 0 19 -7 15 -19l-8 -23v-1c48 -11 88 -51 97 -101l27 -145l52 -62h8zM310 18c-8 -20 -27 -38 -54 -38s-46 18 -54 38c19 -1 37 -2 54 -2s35 1 54 2z"/>
    <glyph glyph-name="glyph333" unicode="&#57583;" d="M53 11c-6 0 -10 5 -10 11v21c0 6 4 11 10 11h406c6 0 10 -5 10 -11v-21c0 -6 -4 -11 -10 -11h-32l-43 -43h-256l-43 43h-32zM320 267c23 0 43 -20 43 -43v-159h-214v71c0 18 10 34 22 40v48c0 23 19 43 42 43h107zM190 327c-6 18 -2 33 6 48c14 27 35 53 50 79 c7 12 16 30 12 47c21 -13 39 -33 56 -59c18 -29 28 -56 31 -82c4 -45 -19 -69 -62 -72c17 9 25 29 15 51c-7 16 -22 35 -37 41c-5 -24 -27 -34 -32 -57c-3 -14 7 -26 16 -34c-24 7 -48 19 -55 38z"/>
    <glyph glyph-name="glyph334" unicode="&#57584;" d="M491 339c0 -19 -23 -28 -36 -15l-15 15l-106 -106c21 -21 29 -52 16 -88c-6 -17 -16 -33 -31 -48l-91 91l-181 -181l-45 -15l15 45l181 181l-90 91c15 15 30 25 47 31c36 13 67 5 88 -16l106 105l-15 15c-4 4 -6 9 -6 15c0 12 9 22 21 22c6 0 11 -2 15 -6l121 -121 c4 -4 6 -9 6 -15z"/>
    <glyph glyph-name="glyph335" unicode="&#57585;" d="M15 374c0 26 18 46 39 52l39 10c-5 -11 -8 -21 -8 -32v-59l-19 -5l19 -71v-165l-68 256c-1 4 -2 9 -2 14zM160 -32c-29 0 -53 25 -53 54v405c0 29 24 53 53 53h192c29 0 53 -24 53 -53v-405c0 -29 -24 -54 -53 -54h-192zM149 75h214v320h-214v-320zM256 59 c-21 0 -38 -16 -38 -37s17 -38 38 -38s38 17 38 38s-17 37 -38 37zM420 436l38 -10c21 -6 39 -26 39 -52c0 -5 0 -10 -1 -14l-69 -256v165l19 71l-19 5v59c0 12 -2 22 -7 32z"/>
    <glyph glyph-name="glyph336" unicode="&#57586;" d="M3 59l12 37l181 181l-6 5c-4 4 -2 11 1 14l119 119c3 3 9 4 13 0l187 -186l-126 -7l-7 -126l-157 157l-181 -182z"/>
    <glyph glyph-name="glyph337" unicode="&#57587;" d="M-7 160c-33 0 -4 22 15 33c11 6 23 12 35 17v6c0 48 22 86 49 111c29 27 76 47 132 47c70 0 116 -30 146 -71c10 -14 18 -29 24 -45c6 -7 18 -14 29 -7c3 2 8 7 9 12c4 23 9 43 33 45c22 2 45 -5 63 -11c9 -3 17 -6 23 -12c10 -10 0 -41 -3 -52c-3 -12 -7 -15 -21 -15 l-29 -2c-19 -4 -41 -16 -64 -34s-38 -35 -46 -50l7 -36c2 -10 9 -26 15 -32c7 -7 -3 -10 -11 -10h-43c-8 0 -17 3 -10 10c5 5 8 21 6 32l-3 18c-15 -5 -32 -9 -51 -11l-6 -28c-2 -12 1 -27 7 -32c7 -7 -3 -11 -11 -11h-43c-8 0 -17 4 -10 11c6 6 13 22 15 32l5 24h-31 c-16 0 -30 0 -43 1c3 -12 8 -29 15 -36s-1 -10 -10 -10h-43c-8 0 -18 3 -11 10c6 5 9 20 7 32l-2 9c-12 2 -21 4 -29 6l-8 -36c-2 -12 1 -27 7 -32c7 -7 -3 -11 -11 -11h-43c-9 0 -17 4 -10 11c6 6 13 22 15 33l10 53c-7 4 -17 9 -20 16c-2 4 -4 9 -5 15h-50z"/>
    <glyph glyph-name="glyph338" unicode="&#57588;" d="M26 228c-3 10 -19 2 -28 2c-23 -1 -22 29 -13 44c5 8 12 12 21 14c26 5 56 2 67 -12c27 19 65 31 111 23c21 -4 44 -11 64 -21c22 -11 30 -15 54 -22c26 -8 40 -2 48 15c2 4 6 13 8 17c-43 -2 -82 11 -113 22c-10 3 -17 6 -22 9l-8 3c-7 3 -23 12 -25 22c-1 4 3 7 9 12 c17 12 58 19 88 14c48 -7 88 -25 122 -47l1 1c-20 20 -52 44 -81 58c-22 11 -58 21 -91 16c-6 5 -18 19 -11 30c6 8 24 9 41 8c41 -3 72 -23 97 -42c17 -12 32 -27 45 -41c6 -6 10 -10 13 -14l5 -5c2 -1 5 -2 12 -5c27 -10 60 -33 80 -52c7 -6 15 -16 13 -28 c-2 -10 -10 -33 -20 -35c-3 0 -4 0 -5 1c18 -21 -21 -27 -41 -27c-23 0 -49 3 -60 -9c-25 -27 -38 -66 -58 -99c-8 -13 -17 -24 -25 -34c10 -4 46 -6 36 -23c-7 -11 -33 -9 -49 -7c-29 -23 -50 -35 -62 -36c-5 0 -8 2 -8 6c1 8 14 22 24 30c-34 3 -90 -3 -114 10 c-23 12 -33 38 -48 58c-9 12 -14 15 -28 21c-22 10 -41 20 -47 46c-5 19 -8 31 -8 37s2 20 6 40zM287 53c6 11 11 28 11 43c0 13 -2 25 -4 35c-16 -7 -41 -12 -63 -7c-9 2 -17 6 -24 11c-15 10 -28 15 -39 15c-2 0 -3 -1 -3 -1c27 -9 39 -42 40 -77c16 -4 65 -14 82 -19z M465 290c-14 6 -29 -5 -21 -18c4 -6 14 -12 24 -9c7 2 13 10 8 19c-2 4 -6 6 -11 8z"/>
    <glyph glyph-name="glyph339" unicode="&#57589;" d="M9 224c0 78 32 135 72 175c41 41 95 72 175 72c78 0 135 -32 175 -72c29 -29 51 -64 63 -109c6 -21 9 -44 9 -66c0 -78 -32 -134 -72 -174c-29 -29 -64 -52 -109 -64c-21 -6 -44 -9 -66 -9c-78 0 -135 33 -175 73c-29 29 -51 64 -63 109c-6 21 -9 43 -9 65zM295 378 c1 1 1 17 1 19c15 -5 30 -7 46 -6c8 39 -37 31 -58 48l-2 -1h-13l-1 1c-13 -10 -27 -14 -48 -17c-11 -2 -20 -3 -25 -4s-17 2 -21 2c-20 0 -31 -12 -44 -23c-4 -3 -6 -8 -2 -12c2 -2 5 -6 4 -10c-3 -33 -25 -58 -27 -92c-1 -11 5 -22 8 -30c2 -7 3 -18 5 -25s15 -18 18 -22 c4 -5 9 -16 8 -26c14 -15 35 -24 56 -32c12 -4 24 -10 31 -13c8 -14 24 -26 44 -23c4 -8 -3 -18 -6 -23c-4 -5 -10 -16 -9 -25c9 -14 18 -30 37 -34c0 -5 -4 -8 -3 -13c0 -2 1 -4 2 -6c47 -1 87 37 110 62c12 13 27 30 29 53c-7 6 -16 3 -24 1c-7 9 -21 11 -34 14 c-7 1 -13 3 -17 6h-14c-20 0 -38 0 -51 -8c-6 -3 -11 -7 -18 -10c-9 -4 -17 -1 -17 9v16c-4 8 -14 6 -22 10c1 10 7 22 -3 27c-13 3 -16 -6 -25 -9c-22 -7 -25 33 -8 40c6 -1 32 -1 37 -3c12 -4 15 -18 31 -18c6 5 8 10 7 21c-2 13 -1 14 7 22s9 10 10 23c1 22 11 28 27 36 c-1 6 1 11 5 16c10 0 21 -3 29 0c3 1 6 4 9 7c-12 28 -44 38 -69 52zM276 346c-18 4 -42 5 -55 14c1 4 14 17 14 23c3 -4 7 -5 12 -4c1 1 12 14 14 15c0 -6 3 -15 8 -25s7 -18 7 -23z"/>
    <glyph glyph-name="glyph340" unicode="&#57590;" d="M43 11c-23 0 -43 20 -43 43v149l65 -43h148v-21h86v21h149l64 43v-149c0 -23 -20 -43 -43 -43h-426zM469 374c23 0 43 -20 43 -43v-96l-75 -53h-138v31h-86v-31h-138l-75 53v96c0 23 20 43 43 43h64v21h42c0 35 29 64 64 64h86c35 0 64 -29 64 -64h42v-21h64zM213 416 c-12 0 -21 -9 -21 -21v-21h128v21c0 12 -9 21 -21 21h-86z"/>
    <glyph glyph-name="glyph341" unicode="&#57591;" d="M43 -10c-23 0 -43 19 -43 42v22c0 23 20 42 43 42h426c23 0 43 -19 43 -42v-22c0 -23 -20 -42 -43 -42h-426zM13 110l73 307c2 10 14 21 26 21h288c12 0 24 -11 26 -21l73 -307c-10 5 -20 8 -30 8h-426c-10 0 -20 -3 -30 -8zM405 32h22v22h-22v-22zM448 32h21v22h-21v-22 z"/>
    <glyph glyph-name="glyph342" unicode="&#57592;" d="M107 54c0 -12 -10 -22 -22 -22h-85v278h85c12 0 22 -10 22 -22v-234zM171 54c-23 0 -43 19 -43 42v171c0 9 3 18 9 26l61 82l41 82c6 13 20 23 38 23h22c23 0 42 -19 42 -42v-64l-12 -64h140c23 0 43 -20 43 -43v-43c0 -12 -5 -22 -13 -30l-18 -18l-83 -125 c-7 -10 -19 -19 -35 -19h-107c-7 0 -13 2 -19 5l-34 17h-32zM171 96h42l43 -21h107l85 128l21 21v43h-192l22 107v64h-22l-42 -86l-64 -85v-171z"/>
    <glyph glyph-name="glyph343" unicode="&#57593;" d="M107 160c0 -12 -10 -21 -22 -21h-85v277h85c12 0 22 -9 22 -21v-235zM341 32c0 -23 -19 -42 -42 -42h-22c-18 0 -31 10 -38 23l-41 82l-61 82c-6 8 -9 17 -9 26v171c0 23 20 42 43 42h32l34 17c6 3 12 5 19 5h107c16 0 28 -9 35 -19l83 -125l18 -18c8 -8 13 -18 13 -30 v-43c0 -23 -20 -43 -43 -43h-140l11 -55c1 -2 1 -6 1 -9v-64zM171 203l64 -85l42 -86h22v64l-22 107h192v43l-21 21l-85 128h-107l-43 -21h-42v-171z"/>
    <glyph glyph-name="glyph344" unicode="&#57594;" d="M77 89c0 -11 -8 -20 -19 -20h-58v252h58c11 0 19 -8 19 -19v-213zM309 302h134c30 0 49 -15 57 -37c3 -7 4 -14 4 -21c0 -35 -25 -58 -61 -58h-66l-34 -122c-2 -7 -10 -15 -19 -15h-131c-3 0 -5 1 -8 3l-78 38c-5 3 -10 10 -10 18v194c0 8 6 14 11 17l178 89 c8 4 18 1 23 -4l32 -33c6 -6 8 -17 2 -25zM473 244c0 13 2 19 -12 19h-191c-15 0 -27 17 -17 31l49 62l-11 11l-156 -77v-170l63 -31h111l35 121c2 7 10 14 19 14h98c11 0 13 4 12 15v5z"/>
    <glyph glyph-name="glyph345" unicode="&#57595;" d="M0 244c0 36 27 58 62 58c37 0 82 -1 134 -1l-34 45c-5 8 -4 19 2 25l32 33c5 5 14 8 22 4l179 -89c5 -3 10 -9 10 -17v-194c0 -8 -3 -14 -10 -18l-78 -38c-3 -1 -5 -3 -8 -3h-131c-9 0 -16 8 -18 15l-35 122h-65c-30 0 -49 14 -57 36c-3 7 -5 15 -5 22zM44 263 c-10 0 -13 -8 -13 -19c0 -13 4 -20 13 -20h98c9 0 15 -7 18 -14l36 -121h111l62 31v170l-155 77l-11 -11l48 -62c10 -14 0 -31 -15 -31h-192zM447 69c-11 0 -20 9 -20 20v213c0 11 9 19 20 19h58v-252h-58z"/>
    <glyph glyph-name="glyph346" unicode="&#57596;" d="M179 417c0 37 22 62 58 62c35 0 58 -25 58 -61v-65l122 -35c7 -2 14 -10 14 -19v-130c0 -3 0 -6 -2 -9l-39 -77c-3 -5 -10 -11 -18 -11h-193c-8 0 -15 6 -18 11l-88 179c-4 8 -1 17 4 22l32 33c6 6 17 6 25 1l45 -34v133zM256 438c0 11 -3 14 -14 13h-5 c-8 0 -17 1 -19 -5c-1 -2 -1 -4 -1 -8v-191c0 -16 -16 -29 -31 -18l-62 48l-10 -10l77 -156h170l30 63v111l-120 34c-7 3 -15 10 -15 19v100zM391 53c11 0 20 -9 20 -20v-58h-252v58c0 11 9 20 20 20h212z"/>
    <glyph glyph-name="glyph347" unicode="&#57597;" d="M179 33v133l-45 -33c-8 -5 -19 -6 -25 0l-32 33c-5 5 -8 14 -4 22l88 178c4 7 10 11 18 11h193c8 0 14 -4 18 -10l39 -77c2 -3 2 -6 2 -9v-130c0 -9 -7 -15 -14 -18l-122 -36v-64c0 -36 -23 -64 -58 -64s-58 28 -58 64zM232 -2h5c6 0 13 -1 16 3c2 3 3 7 3 12v100 c0 9 8 15 15 18l120 34v111l-30 62h-170l-77 -155l10 -10l62 48c4 3 7 4 12 4c12 0 19 -10 19 -22v-190c0 -11 4 -16 15 -15zM179 396c-10 0 -18 9 -19 19h-1v59h252v-59c-1 -10 -10 -19 -20 -19h-212z"/>
    <glyph glyph-name="glyph348" unicode="&#57598;" d="M0 -32v150h43v-107h106v-43h-149zM0 331v149h149v-42h-106v-107h-43zM96 54c-6 0 -11 4 -11 10v128c0 6 4 8 8 4l44 -45l74 73l-74 74l-44 -45c-4 -4 -8 -3 -8 3v128c0 6 5 11 11 11h128c6 0 7 -3 3 -7l-44 -45l73 -73l73 73l-44 45c-4 4 -3 7 3 7h128c6 0 11 -5 11 -11 v-128c0 -6 -4 -7 -8 -3l-44 45l-74 -74l74 -73l44 45c4 4 8 2 8 -4v-128c0 -6 -5 -10 -11 -10h-128c-6 0 -7 3 -3 7l44 45l-73 73l-73 -73l44 -45c4 -4 3 -7 -3 -7h-128zM363 -32v43h106v107h43v-150h-149zM363 438v42h149v-149h-43v107h-106z"/>
    <glyph glyph-name="glyph349" unicode="&#57599;" d="M408 408v-20h69v-340l-81 -81h-380v341l80 80h28c0 39 33 72 72 72h30c14 13 31 21 50 21h60c39 0 72 -34 72 -73zM76 308h48v40h-8zM148 308h156v40h-156v-40zM148 388h56v20c0 9 2 19 6 28h-14c-26 0 -48 -22 -48 -48zM304 388c0 26 -22 48 -48 48h-19 c-7 -8 -9 -18 -9 -28v-20h76zM385 408c0 26 -23 48 -49 48h-57c26 -9 49 -34 49 -68h57v20zM328 308h58l40 40h-98v-40z"/>
    <glyph glyph-name="glyph350" unicode="&#57600;" d="M256 46c-22 8 -73 19 -107 19s-96 -16 -123 -25l-26 -8v335l21 11v28c30 17 75 29 123 29c37 0 69 -8 94 -18c9 -4 12 -5 18 -9c9 6 28 13 41 17c18 5 47 10 71 10c39 0 74 -9 101 -19c7 -3 12 -5 16 -7l6 -3v-28l21 -11v-335c-14 7 -36 13 -64 19v-79l-31 42l-33 -42v92 c-7 1 -14 1 -21 1c-28 0 -72 -8 -92 -14zM64 117c25 8 52 15 86 15c23 0 52 -5 85 -15v255c-23 16 -51 25 -85 25c-27 0 -62 -4 -78 -12l-8 -3v-265zM277 117c33 10 62 15 85 15c35 0 61 -7 86 -15v265c-6 4 -19 7 -29 9c-14 3 -38 6 -57 6c-34 0 -62 -9 -85 -25v-255z"/>
    <glyph glyph-name="glyph351" unicode="&#57601;" d="M43 11c-23 0 -43 20 -43 43v298c0 23 20 43 43 43h85v-21c0 -27 16 -43 43 -43h170c27 0 43 16 43 43v21h85c23 0 43 -20 43 -43v-298c0 -23 -20 -43 -43 -43h-426zM85 267c-11 0 -21 -8 -21 -19v-154c0 -11 10 -19 21 -19h150c11 0 21 8 21 19v154c0 11 -10 19 -21 19 h-150zM186 194c0 -7 -8 -16 -13 -18v-12c2 -1 45 -16 47 -17c4 -2 5 -5 5 -11v-13c0 -2 0 -3 -2 -3h-126c-2 0 -3 1 -3 3v13c0 11 6 11 16 15c9 3 29 10 37 13v12c-5 1 -13 11 -13 18v26c0 15 10 26 26 26s26 -11 26 -26v-26zM171 352c-12 0 -22 10 -22 22v21 c0 12 10 21 22 21h42v20c0 12 10 23 22 23h42c12 0 22 -11 22 -23v-20h42c12 0 22 -9 22 -21v-21c0 -12 -10 -22 -22 -22h-170zM299 160h128v22h-128v-22zM299 203h149v21h-149v-21zM299 246h64v21h-64v-21zM384 246h64v21h-64v-21z"/>
    <glyph glyph-name="glyph352" unicode="&#57602;" d="M43 -10c-23 0 -43 19 -43 42v86h512v-86c0 -23 -20 -42 -43 -42h-85v42h32c6 0 11 5 11 11v21c0 6 -5 11 -11 11h-85c-6 0 -11 -5 -11 -11v-21c0 -6 5 -11 11 -11h32v-42h-214v42h32c6 0 11 5 11 11v21c0 6 -5 11 -11 11h-85c-6 0 -11 -5 -11 -11v-21c0 -6 5 -11 11 -11 h32v-42h-85zM469 459c23 0 43 -20 43 -43v-277h-512v277c0 23 20 43 43 43h426zM85 374c-11 0 -21 -8 -21 -19v-154c0 -11 10 -19 21 -19h150c11 0 21 8 21 19v154c0 11 -10 19 -21 19h-150zM98 226c-1 0 -3 2 -3 3v14c0 7 2 8 6 11c2 1 45 16 47 17v12c-5 1 -13 11 -13 17 v27c0 15 10 25 26 25s26 -10 26 -25v-27c0 -6 -8 -16 -13 -17v-12c2 -1 45 -16 47 -17c4 -3 6 -4 6 -11v-14c0 -2 -1 -3 -3 -3h-126zM299 267h128v21h-128v-21zM299 310h149v21h-149v-21zM299 352h64v22h-64v-22zM384 352h64v22h-64v-22z"/>
    <glyph glyph-name="glyph353" unicode="&#57603;" d="M64 416c0 27 -10 49 -21 64h170c-11 -14 -21 -38 -21 -64c0 -21 14 -32 25 -43c24 -25 38 -56 38 -106c0 -44 -16 -92 -30 -124c-15 -33 -33 -68 -46 -100c-6 -14 -8 -24 -8 -32c0 -10 2 -16 6 -21h36v-22h-170v22h36c4 4 6 11 6 21c0 7 -2 16 -6 27 c-10 27 -23 49 -36 77c-20 43 -43 91 -43 152c0 50 15 82 39 106c11 11 25 22 25 43zM448 246c-9 -9 -21 -25 -21 -43c0 -8 10 -15 16 -20c32 -24 68 -50 68 -106c0 -47 -23 -75 -59 -85c-4 -1 -7 -2 -10 -2h27v-22h-170v22h28c-45 4 -71 38 -71 87c0 37 16 60 34 79 c11 11 22 20 34 28c7 6 17 9 17 19c0 13 -10 30 -16 37l-5 6h128z"/>
    <glyph glyph-name="glyph354" unicode="&#57604;" d="M21 203c-23 0 -42 20 -42 43v21c0 23 19 43 42 43v-107zM43 310c0 12 9 21 21 21h85l299 107v-363l-299 107h-16l20 -128c2 -12 -7 -22 -18 -22h-35c-12 0 -24 10 -26 21l-25 135c-5 4 -6 9 -6 15v107zM491 54c-12 0 -22 9 -22 21v363c0 12 10 21 22 21s21 -9 21 -21 v-363c0 -12 -9 -21 -21 -21z"/>
    <glyph glyph-name="glyph355" unicode="&#57605;" d="M43 75c-12 0 -22 9 -22 21v64h-42v86h42v64c0 12 10 21 22 21h21c12 0 21 -9 21 -21v42c0 12 10 22 22 22h21c12 0 21 -10 21 -22v-106h214v106c0 12 9 22 21 22h21c12 0 22 -10 22 -22v-42c0 12 9 21 21 21h21c12 0 22 -9 22 -21v-64h42v-86h-42v-64 c0 -12 -10 -21 -22 -21h-21c-12 0 -21 9 -21 21v-42c0 -12 -10 -22 -22 -22h-21c-12 0 -21 10 -21 22v106h-214v-106c0 -12 -9 -22 -21 -22h-21c-12 0 -22 10 -22 22v42c0 -12 -9 -21 -21 -21h-21z"/>
    <glyph glyph-name="glyph356" unicode="&#57606;" d="M64 -10c-35 0 -64 29 -64 64v256c0 35 29 64 64 64h384c35 0 64 -29 64 -64v-256c0 -35 -29 -64 -64 -64h-384zM213 416c-16 0 -21 -4 -21 -21h-43c0 39 26 64 64 64h86c38 0 64 -25 64 -64h-43c0 17 -5 21 -21 21h-86z"/>
    <glyph glyph-name="glyph357" unicode="&#57607;" d="M29 118c-6 0 -8 2 -8 8v66c0 7 1 11 8 11h163v59c0 3 4 5 6 3l122 -102c1 -1 2 -2 2 -3c0 -2 -1 -3 -2 -4l-122 -102c-2 -2 -6 -1 -6 2v62h-163zM96 -32c-6 0 -11 5 -11 11v117h86v-40c0 -20 11 -35 30 -35c7 0 13 2 20 8l118 102c10 8 15 17 15 29s-4 21 -12 27 l-122 103c-7 5 -13 8 -19 8c-19 0 -30 -16 -30 -36v-38h-86v246c0 6 5 10 11 10h245v-138c0 -6 5 -11 11 -11h139v-352c0 -6 -5 -11 -11 -11h-384zM373 352c-6 0 -10 5 -10 11v117l128 -128h-118z"/>
    <glyph glyph-name="glyph358" unicode="&#57608;" d="M53 -32c-6 0 -10 5 -10 11v491c0 6 4 10 10 10h246v-138c0 -6 4 -11 10 -11h139v-76l-38 33c-6 5 -12 7 -19 7c-18 0 -28 -15 -28 -33v-38h-142c-19 0 -29 -7 -29 -27v-71c0 -23 6 -30 29 -30h142v-40c0 -18 11 -33 29 -33c9 0 12 4 18 8l38 32v-84c0 -6 -5 -11 -11 -11 h-384zM221 118c-6 0 -8 2 -8 8v66c0 7 3 11 8 11h163v59c0 3 4 5 6 3l122 -102c1 -1 2 -2 2 -3c0 -2 -1 -3 -2 -4l-122 -102c-2 -2 -6 -1 -6 2v62h-163zM331 352c-6 0 -11 5 -11 11v117l128 -128h-117z"/>
    <glyph glyph-name="glyph359" unicode="&#57609;" d="M43 -10c-12 0 -22 9 -22 21s10 21 22 21h34l42 43h24c-6 20 -9 41 -12 64h-56l-47 48c-8 8 -8 22 0 30s22 8 30 0l35 -35h35v13c0 16 2 31 6 46c-2 1 -3 2 -3 2l-46 43v75l-18 19c-8 8 -7 22 1 30c9 8 22 8 30 0l30 -31v-74l25 -25c21 30 56 54 103 54 c46 0 81 -23 102 -52l26 23v73l28 31c8 9 21 10 30 2s10 -21 2 -30l-17 -19v-76l-49 -44h-1c5 -15 7 -31 7 -47v-13h34l35 35c4 4 9 6 15 6c12 0 21 -9 21 -21c0 -6 -2 -11 -6 -15l-48 -48h-54c-3 -23 -6 -45 -12 -64h24l42 -43h34c12 0 22 -9 22 -21s-10 -21 -22 -21h-51 l-43 42h-23c-22 -43 -54 -64 -96 -64s-74 21 -96 64h-23l-43 -42h-51zM309 470c6 0 11 -5 11 -11v-30c0 -3 -1 -5 -3 -7l-19 -22c15 -13 22 -29 22 -48v-5c-20 10 -42 15 -64 15s-44 -5 -64 -15v5c0 19 7 35 22 48l-19 22c-2 2 -3 4 -3 7v30c0 6 5 11 11 11s10 -5 10 -11 v-26l20 -21c8 3 15 4 23 4s15 -1 23 -4l20 21v26c0 6 4 11 10 11z"/>
    <glyph glyph-name="glyph360" unicode="&#57610;" d="M21 311c-23 0 -41 18 -41 41s18 42 41 42s42 -19 42 -42c0 -10 -4 -19 -11 -27l131 -111l61 206c-16 5 -29 19 -29 39c0 23 18 41 41 41s41 -18 41 -41c0 -20 -13 -34 -29 -39l63 -206l128 112c-7 8 -10 16 -10 26c0 23 19 42 42 42s41 -19 41 -42s-18 -41 -41 -41 c-3 0 -7 1 -11 2l-53 -206v-21c0 -6 -5 -11 -11 -11h-320c-6 0 -11 5 -11 11v21l-54 205c-3 -1 -7 -1 -10 -1zM416 54c6 0 11 -5 11 -11v-75h-342v75c0 6 5 11 11 11h320z"/>
    <glyph glyph-name="glyph361" unicode="&#57611;" d="M47 97c-9 0 1 61 2 69c5 27 19 58 34 78c9 12 14 22 17 29c6 15 -3 24 -11 30c-27 19 -52 51 -42 100c4 19 20 33 36 42c23 12 59 15 98 13c29 -2 72 -7 48 -38c-6 -7 -19 -19 -38 -35s-32 -29 -38 -36c-13 -16 -14 -27 0 -34c9 -5 15 -9 18 -14c8 -11 -2 -22 -9 -29 c-11 -11 -28 -25 -41 -36c-14 -13 -31 -33 -40 -51c-12 -25 -24 -50 -30 -77c-1 -5 -1 -11 -4 -11zM64 33l75 -75c-12 -10 -30 -15 -47 -7c-26 11 -55 51 -28 82zM85 54l268 269l76 -76l-269 -268zM374 343l94 95l76 -76l-95 -95z"/>
    <glyph glyph-name="glyph362" unicode="&#57612;" d="M85 75c-45 0 -82 39 -82 84c0 41 30 73 65 81c-1 5 -1 10 -1 16c0 47 21 86 46 111s64 46 111 46c69 0 121 -42 143 -92c12 4 25 6 38 6c37 0 69 -17 88 -37s36 -52 36 -89c0 -50 -27 -89 -61 -109c-19 -11 -41 -17 -63 -17h-15c-1 16 -14 28 -31 28h-33v92 c0 23 -14 36 -36 36h-68c-21 0 -35 -15 -35 -36v-92h-34c-17 0 -29 -12 -31 -28h-37zM151 70c-2 2 -1 5 2 5h60v120c0 6 3 8 9 8h68c6 0 9 -3 9 -8v-120h60c3 0 5 -3 3 -5l-102 -121c-1 -1 -2 -2 -4 -2c-1 0 -2 1 -3 2z"/>
    <glyph glyph-name="glyph363" unicode="&#57613;" d="M82 104c-44 0 -79 38 -79 82c0 40 29 70 63 78c-1 5 -1 10 -1 16c0 46 20 83 44 107s62 45 108 45c67 0 117 -42 138 -89c13 4 24 6 37 6c48 0 87 -28 105 -61c11 -18 15 -40 15 -62c0 -48 -24 -86 -56 -105c-17 -11 -38 -17 -59 -17h-9c1 0 -3 15 -4 17c-1 5 -3 8 -5 11 l-101 115c-8 10 -17 14 -30 14s-22 -5 -28 -13l-105 -117c-4 -5 -6 -18 -7 -27h-26zM148 104c-3 0 -4 4 -2 6l99 116c1 1 2 2 3 2c2 0 3 -1 4 -2l98 -116c2 -2 1 -6 -2 -6h-60v-116c0 -5 -1 -8 -7 -8h-66c-6 0 -9 3 -9 8v116h-58z"/>
    <glyph glyph-name="glyph364" unicode="&#57614;" d="M397 11c-35 -23 -88 -42 -141 -42c-79 0 -144 33 -184 75c-40 41 -72 103 -72 180c0 72 29 129 65 170l45 -45c-26 -30 -46 -72 -46 -124c0 -57 26 -106 56 -136c30 -31 78 -56 136 -56c46 0 72 10 103 30l-32 46c-3 5 -2 8 4 8h146c6 0 9 -4 7 -10l-46 -138 c-2 -6 -7 -6 -10 -1zM86 416c17 15 36 27 56 37l24 -59c-12 -7 -24 -15 -35 -24zM175 467c20 7 40 10 60 12v-64c-13 -1 -25 -3 -36 -7zM277 415v64c19 -2 37 -5 54 -10l-25 -59c-10 3 -20 4 -29 5zM352 391l24 59c14 -7 27 -16 40 -26l-45 -46c-6 5 -12 9 -19 13zM410 339 l45 45c8 -10 17 -21 24 -34l-60 -25c-3 5 -6 10 -9 14zM443 273l59 27c1 -3 5 -33 7 -33h-64s-1 2 -2 6z"/>
    <glyph glyph-name="glyph365" unicode="&#57615;" d="M25 71l33 17l100 -45l-90 -46zM33 147l391 217l103 -178l-288 -168l-24 40l-173 73zM363 480c0 -44 -29 -73 -64 -82v-74l-43 -23v97c-35 9 -64 38 -64 82h171z"/>
    <glyph glyph-name="glyph366" unicode="&#57616;" d="M128 11c-47 0 -85 38 -85 85v235c0 47 38 85 85 85h235c47 0 85 -38 85 -85v-235c0 -47 -38 -85 -85 -85h-235zM107 374c-12 0 -22 -10 -22 -22v-277c0 -12 10 -21 22 -21h277c12 0 21 9 21 21v277c0 12 -9 22 -21 22h-277zM151 246c-7 9 -2 21 9 21h171 c11 0 15 -13 8 -22l-81 -113c-7 -9 -18 -11 -25 -1z"/>
    <glyph glyph-name="glyph367" unicode="&#57617;" d="M128 11c-47 0 -85 38 -85 85v235c0 47 38 85 85 85h235c47 0 85 -38 85 -85v-235c0 -47 -38 -85 -85 -85h-235zM107 374c-12 0 -22 -10 -22 -22v-277c0 -12 10 -21 22 -21h277c12 0 21 9 21 21v277c0 12 -9 22 -21 22h-277zM192 128v171c0 11 13 16 22 9l113 -82 c9 -7 11 -18 1 -25l-115 -81c-9 -7 -21 -3 -21 8z"/>
    <glyph glyph-name="glyph368" unicode="&#57618;" d="M128 11c-47 0 -85 38 -85 85v235c0 47 38 85 85 85h235c47 0 85 -38 85 -85v-235c0 -47 -38 -85 -85 -85h-235zM107 374c-12 0 -22 -10 -22 -22v-277c0 -12 10 -21 22 -21h277c12 0 21 9 21 21v277c0 12 -9 22 -21 22h-277zM160 160c-11 0 -16 13 -9 22l82 113 c7 9 18 11 25 1l81 -114c7 -9 3 -22 -8 -22h-171z"/>
    <glyph glyph-name="glyph369" unicode="&#57619;" d="M12 185c-8 49 -1 96 19 141c26 57 74 103 133 127c30 12 60 18 92 18c52 0 97 -16 131 -38c37 -24 69 -59 89 -99c18 -35 31 -81 26 -133c-5 -48 -22 -91 -52 -129c-50 -63 -141 -116 -255 -87c-93 24 -167 100 -183 200zM162 302c0 -1 -1 -7 -1 -8v-4s1 -7 2 -6 s2 -7 4 -4c4 4 5 -4 9 2c6 3 13 9 24 18c6 5 12 10 18 2c4 -5 12 -7 12 -15c5 -1 8 -1 8 2c0 6 -14 23 -13 24c8 7 26 -31 32 -30c8 1 -6 13 2 15c7 0 8 -12 12 -14c6 -3 15 -4 19 -9c10 -15 -9 -23 -21 -20c-6 1 -17 0 -21 -5c-2 -2 -5 -6 -9 -4c-7 5 -12 8 -16 10 s3 11 -4 12c-9 2 -23 -4 -38 -3c-6 0 -10 0 -11 -2c-10 -6 -18 -21 -26 -29c-5 -6 -6 -12 -4 -19c1 -4 -3 -19 -2 -24c3 -9 14 -30 24 -32c8 -1 27 3 31 6c6 5 9 -3 13 -5c5 -3 12 2 12 -6c-2 -15 4 -22 9 -31c1 -2 2 -8 2 -11c0 -5 -7 -18 -4 -25c7 -16 4 -48 14 -60 c3 -3 10 -3 22 1c8 2 16 13 25 30c1 3 8 9 9 12c0 3 0 7 -1 10c0 12 18 12 19 24c0 3 -4 19 -5 21c-3 17 18 35 27 47c4 5 9 15 10 23c-7 -6 -18 -7 -26 -1c-8 5 -17 11 -21 22c-2 5 -4 9 -6 11c-6 7 5 13 11 10c8 -4 12 -21 16 -30c2 -5 5 -8 8 -8c9 0 23 10 27 14 c2 2 6 6 11 12c-1 10 3 17 13 16c4 0 8 -3 11 -7c4 -6 5 -8 12 -6c6 1 7 -1 9 -5c2 -3 4 -11 7 -24c0 -5 3 -19 7 -19c7 0 8 9 8 17c0 5 0 8 1 9c4 8 20 24 29 26c2 -2 2 -16 6 -17c3 -1 6 3 6 12c1 12 -2 26 -6 43c-14 54 -42 96 -85 125c-10 7 -19 2 -31 2 c-1 4 -8 6 -11 2c-1 -2 2 -14 0 -15s-5 -1 -9 -1c-9 1 -25 0 -30 -4c-4 -4 -12 -9 -18 -11s-8 3 -9 8c8 1 12 13 5 18c-4 3 -15 4 -34 3c-26 -2 -34 -3 -45 -18c-10 -13 8 -19 15 -24c3 -2 5 -4 5 -7c8 2 11 10 19 11c3 0 6 -2 9 -4c13 -3 -4 -14 -7 -14h-1 c-15 8 -27 -3 -39 -6c-17 -5 -27 -9 -29 -13c3 -5 13 -10 3 -15c-4 -2 -14 2 -14 -5zM173 343c-1 -2 -15 -7 -3 -9c7 -1 17 -2 21 2c14 12 -1 30 -12 34c-6 2 -10 0 -12 -6c3 -5 12 -13 6 -21zM321 91c-3 -5 -10 -30 3 -30c14 0 18 28 19 41c0 5 -2 11 -5 13 c-3 -5 -14 -18 -17 -24z"/>
    <glyph glyph-name="glyph370" unicode="&#57620;" d="M0 224c0 80 34 140 75 181c30 30 67 53 113 66c22 6 45 9 68 9c80 0 140 -34 181 -75c30 -30 53 -67 66 -113c6 -22 9 -45 9 -68c0 -80 -34 -140 -75 -181c-30 -30 -67 -52 -113 -65c-22 -6 -45 -10 -68 -10c-80 0 -140 34 -181 75c-30 30 -53 67 -66 113 c-6 22 -9 45 -9 68zM51 244h57c1 23 4 46 10 67h-49c-10 -21 -16 -44 -18 -67zM51 204c2 -23 8 -45 18 -66h49c-6 21 -9 43 -10 66h-57zM93 351h39c11 24 25 45 41 63c-32 -14 -58 -35 -80 -63zM94 97c21 -27 47 -47 78 -61c-16 18 -30 38 -40 61h-38zM146 204 c1 -23 5 -45 12 -66h78v66h-90zM146 244h90v67h-78c-7 -21 -11 -44 -12 -67zM175 97c13 -23 30 -42 49 -57c4 -3 8 -7 12 -9v66h-61zM175 351h61v66c-25 -15 -46 -39 -61 -66zM276 31c23 15 46 40 61 66h-61v-66zM276 138h78c7 21 11 43 12 66h-90v-66zM276 244h90 c-1 23 -5 46 -12 67h-78v-67zM276 351h61c-13 23 -30 43 -49 58c-4 3 -8 6 -12 8v-66zM338 415c17 -18 31 -40 42 -64h40c-22 28 -49 50 -82 64zM339 35c32 14 59 35 80 62h-39c-11 -23 -25 -44 -41 -62zM394 138h50c10 21 16 43 18 66h-58c-1 -23 -4 -45 -10 -66zM394 311 c6 -21 9 -44 10 -67h58c-2 23 -8 46 -18 67h-50z"/>
    <glyph glyph-name="glyph371" unicode="&#57621;" d="M64 -32c-12 0 -21 10 -21 22v320h277v-320c0 -12 -9 -22 -21 -22h-235zM64 331l64 43h107l64 -43h-235zM192 438c12 0 21 -9 21 -21v-22h-64v22c0 12 10 21 22 21h21zM273 408c-8 0 -15 7 -15 15s7 15 15 15s15 -7 15 -15s-7 -15 -15 -15zM316 386c-8 0 -15 7 -15 15 s7 15 15 15s15 -7 15 -15s-7 -15 -15 -15zM316 429c-8 0 -15 7 -15 15s7 15 15 15s15 -7 15 -15s-7 -15 -15 -15zM358 365c-8 0 -15 7 -15 15s7 15 15 15s15 -7 15 -15s-7 -15 -15 -15zM358 408c-8 0 -15 7 -15 15s7 15 15 15s15 -7 15 -15s-7 -15 -15 -15zM358 450 c-8 0 -15 7 -15 15s7 15 15 15s15 -7 15 -15s-7 -15 -15 -15zM401 344c-8 0 -15 7 -15 15s7 15 15 15s15 -7 15 -15s-7 -15 -15 -15zM401 386c-8 0 -15 7 -15 15s7 15 15 15s15 -7 15 -15s-7 -15 -15 -15zM401 429c-8 0 -15 7 -15 15s7 15 15 15s15 -7 15 -15 s-7 -15 -15 -15zM401 472c-8 0 -15 7 -15 15s7 15 15 15s15 -7 15 -15s-7 -15 -15 -15zM444 322c-8 0 -15 7 -15 15s7 15 15 15s15 -7 15 -15s-7 -15 -15 -15zM444 365c-8 0 -15 7 -15 15s7 15 15 15s15 -7 15 -15s-7 -15 -15 -15zM444 408c-8 0 -15 7 -15 15s7 15 15 15 s15 -7 15 -15s-7 -15 -15 -15zM444 450c-8 0 -15 7 -15 15s7 15 15 15s15 -7 15 -15s-7 -15 -15 -15zM444 493c-8 0 -15 7 -15 15s7 15 15 15s15 -7 15 -15s-7 -15 -15 -15zM486 301c-8 0 -15 7 -15 15s7 15 15 15s15 -7 15 -15s-7 -15 -15 -15zM486 344c-8 0 -15 7 -15 15 s7 15 15 15s15 -7 15 -15s-7 -15 -15 -15zM486 386c-8 0 -15 7 -15 15s7 15 15 15s15 -7 15 -15s-7 -15 -15 -15zM486 429c-8 0 -15 7 -15 15s7 15 15 15s15 -7 15 -15s-7 -15 -15 -15zM486 472c-8 0 -15 7 -15 15s7 15 15 15s15 -7 15 -15s-7 -15 -15 -15zM486 514 c-8 0 -15 7 -15 15s7 15 15 15s15 -7 15 -15s-7 -15 -15 -15z"/>
    <glyph glyph-name="glyph372" unicode="&#57622;" d="M43 32l14 65l187 318l-45 50l11 19l148 -86l-11 -18l-66 13l-187 -317zM114 -53l31 60l261 261l-31 60l15 15l121 -120l-15 -15l-60 30l-261 -261z"/>
    <glyph glyph-name="glyph373" unicode="&#57623;" d="M-33 42l225 197l16 -15l128 128l30 -30l-128 -128l15 -16l-197 -225zM260 441l60 61l23 -22v-30l-30 -30h-30zM321 382v30l30 31h30l91 -91c27 -27 45 -61 55 -103c4 -19 6 -35 6 -55v-17l-1 -6l-8 8c-1 18 -13 43 -21 60c-14 27 -39 60 -62 83c-13 -13 -34 -23 -52 -8z "/>
    <glyph glyph-name="glyph374" unicode="&#57624;" d="M4 54l213 185l14 -15l119 118l28 -28l-118 -118l14 -15l-185 -211zM297 415l60 57l139 -142v-84l-19 -14z"/>
    <glyph glyph-name="glyph375" unicode="&#57625;" d="M-35 9l349 508c6 8 21 12 31 5c7 -5 12 -14 14 -23c2 -10 12 -17 24 -19c17 -3 83 -23 101 -26c25 -6 33 -27 24 -61c-1 -3 -9 -25 -23 -67c-3 -11 -16 -16 -37 -16h-86v-43h-42v-43h-43v-42h-43v-43h-42v-43h-43v-42h-43v-43h-42v-43h-43zM24 41c-21 -4 -16 -37 6 -33 c20 4 16 36 -6 33zM273 381l171 -26c10 22 16 35 18 40c4 11 -4 20 -12 22l-114 31c-13 3 -19 -5 -25 -13z"/>
    <glyph glyph-name="glyph376" unicode="&#57626;" d="M3 225c0 74 34 136 73 175s102 73 176 73s136 -34 175 -73s72 -101 72 -175s-33 -137 -72 -176s-101 -73 -175 -73s-137 34 -176 73s-73 102 -73 176zM64 213c3 -50 20 -91 52 -123s73 -50 123 -53v115h20v-115c71 4 125 39 154 87c16 26 24 56 26 89h-120v19h120 c-3 53 -25 97 -54 126s-73 51 -126 54v-120h-20v120c-70 -4 -122 -41 -150 -90c-15 -26 -23 -57 -25 -90h115v-19h-115z"/>
    <glyph glyph-name="glyph377" unicode="&#57627;" d="M64 -10c-35 0 -64 29 -64 64v362c0 35 29 64 64 64h363c35 0 64 -29 64 -64v-362c0 -35 -29 -64 -64 -64h-363zM62 235c0 -55 24 -101 53 -130s75 -54 130 -54s101 25 130 54s54 75 54 130s-25 101 -54 130s-75 54 -130 54s-101 -25 -130 -54s-53 -75 -53 -130zM97 235 c0 44 19 81 43 105s61 43 105 43s81 -19 105 -43s44 -61 44 -105s-20 -81 -44 -105s-61 -43 -105 -43s-81 19 -105 43s-43 61 -43 105zM160 275c-21 0 -39 -19 -39 -40s18 -39 39 -39s39 18 39 39s-18 40 -39 40zM245 361c-22 0 -40 -19 -40 -41s18 -40 40 -40s40 18 40 40 s-18 41 -40 41zM245 306c-8 0 -14 6 -14 14s6 15 14 15s15 -7 15 -15s-7 -14 -15 -14zM331 275c-21 0 -40 -19 -40 -40s19 -39 40 -39s39 18 39 39s-18 40 -39 40z"/>
    <glyph glyph-name="glyph378" unicode="&#57628;" d="M64 -10c-35 0 -64 29 -64 64v362c0 35 29 64 64 64h363c35 0 64 -29 64 -64v-362c0 -35 -29 -64 -64 -64h-363zM134 397c-104 -111 -97 -214 7 -323h208c104 109 111 212 7 323h-222zM155 96c-78 99 -94 186 -7 278h193c87 -92 72 -179 -6 -278h-180zM149 246h43v85h-43 v-85zM245 186c-21 0 -32 -25 -32 -47v-21h64v21c0 22 -11 47 -32 47zM299 246h42v85h-42v-85z"/>
    <glyph glyph-name="glyph379" unicode="&#57629;" d="M4 220c0 2 1 3 3 5l182 135c3 3 6 0 6 -4v-42l-120 -89c-2 -2 -2 -3 -2 -5s0 -3 2 -5l120 -89v-42c0 -4 -3 -6 -6 -3l-182 134c-2 2 -3 3 -3 5zM126 225l182 135c3 3 7 0 7 -4v-77c81 -7 142 -41 174 -98c12 -22 20 -54 21 -88c-19 46 -63 64 -119 73c-18 3 -36 2 -55 3 h-21v-85c0 -4 -4 -6 -7 -3l-182 134c-2 2 -2 3 -2 5s0 3 2 5z"/>
    <glyph glyph-name="glyph380" unicode="&#57630;" d="M40 11c-15 0 -40 15 -40 30v55c0 28 23 53 43 64l193 107v14l-43 44c-20 20 -21 53 -4 79s49 45 89 28c7 -3 21 -13 27 -18l5 -4c13 -10 18 -17 8 -33c-7 -11 -23 -14 -35 -6c-1 0 -8 5 -24 16c-15 5 -31 -4 -33 -20c0 -4 0 -7 1 -8l51 -51c5 -5 7 -10 7 -17v-30 l184 -101c20 -11 43 -36 43 -64v-55c0 -15 -25 -30 -40 -30h-432zM437 75c6 0 11 5 11 11v16c0 6 -10 13 -15 15l-177 88l-177 -88c-5 -2 -15 -9 -15 -15v-16c0 -6 5 -11 11 -11h362z"/>
    <glyph glyph-name="glyph381" unicode="&#57631;" d="M61 22l110 288v21l-10 43l-12 106h22c4 -42 28 -74 74 -74c42 0 64 27 72 60c2 7 3 8 3 14h21l-12 -106l-9 -43v-21l99 -299l-5 -4c-12 -9 -32 -18 -51 -24c-29 -10 -76 -15 -117 -15c-10 0 -27 2 -53 4v210l-54 -205z"/>
    <glyph glyph-name="glyph382" unicode="&#57632;" d="M224 459c0 12 8 21 21 21h43c11 0 20 -7 21 -16v-5l75 -43l107 -256h-64l-64 128v-85l43 -211l-65 -24l-64 182v-203l-153 8l47 248v85l-64 -128h-64l106 256zM313 432c-7 6 -32 11 -46 11s-40 -5 -47 -11l47 -127zM294 150c6 -11 19 -19 37 -15c14 2 24 8 29 19 c1 2 2 4 2 6v2z"/>
    <glyph glyph-name="glyph383" unicode="&#57633;" d="M0 11l96 384l75 39v-88l96 28l96 -28v88l74 -39l96 -384h-64l-64 203v-203c-10 -9 -31 -21 -47 -27c-20 -8 -53 -14 -81 -15v213l-58 -188l-91 38v182l-64 -203h-64zM192 384v54l19 20l45 -63zM277 395l45 63l19 -20v-54zM305 267h73l-37 37z"/>
    <glyph glyph-name="glyph384" unicode="&#57634;" d="M107 310c1 -31 7 -48 31 -54l-10 -42c-12 -7 -41 -11 -63 -11c-20 0 -46 3 -59 8l-6 3v202h107v-106zM0 438v42h320v-42h-320zM160 280c-19 0 -30 14 -32 30v106h64v-106c-1 -17 -13 -30 -32 -30zM182 256c24 6 30 23 31 54v106h107v-202l-6 -3c-12 -6 -37 -8 -57 -8 c-23 0 -52 4 -65 11zM352 -32c-12 0 -27 6 -32 11v3c-2 24 -12 46 -22 64c-9 17 -24 33 -38 47c-18 17 -43 34 -68 46v43l7 -4c14 -6 36 -12 55 -17c26 -6 65 -11 98 -11l160 -11c-43 -22 -81 -51 -104 -90c-11 -18 -17 -30 -21 -50c-2 -11 -3 -12 -3 -20 c-7 -5 -19 -11 -32 -11zM267 138c-5 0 -10 -5 -10 -10s5 -9 10 -9c6 0 9 3 9 9c0 5 -4 10 -9 10z"/>
    <glyph glyph-name="glyph385" unicode="&#57635;" d="M53 182c-6 0 -10 4 -10 10v64c0 6 4 11 10 11h160v53c0 6 4 7 9 4l111 -92c2 -2 4 -4 4 -7s-2 -5 -4 -7l-111 -93c-5 -3 -9 -2 -9 4v53h-160zM213 32c-47 0 -85 39 -85 86v21h43v-43c0 -12 9 -21 21 -21h256c12 0 21 9 21 21v256c0 12 -9 22 -21 22h-256 c-12 0 -21 -10 -21 -22v-42h-43v21c0 47 38 85 85 85h214c47 0 85 -38 85 -85v-213c0 -47 -38 -86 -85 -86h-214z"/>
    <glyph glyph-name="glyph386" unicode="&#57636;" d="M128 32c-47 0 -85 39 -85 86v213c0 47 38 85 85 85h213c46 0 84 -38 85 -83l-28 24c-4 3 -28 17 -35 17h-256c-12 0 -22 -10 -22 -22v-256c0 -12 10 -21 22 -21h256c7 0 31 14 35 17l28 24c-1 -46 -39 -84 -85 -84h-213zM203 182c-6 0 -11 4 -11 10v64c0 6 5 11 11 11 h160v53c0 6 3 7 8 4l112 -92c2 -2 3 -4 3 -7s-1 -5 -3 -7l-112 -93c-5 -3 -8 -2 -8 4v53h-160z"/>
    <glyph glyph-name="glyph387" unicode="&#57637;" d="M-32 182c-6 0 -11 4 -11 10v64c0 6 5 11 11 11h117v53c0 6 4 7 9 4l111 -92c4 -4 5 -10 0 -14l-112 -93c-4 -4 -8 -2 -8 4v53h-117zM149 32c-12 0 -21 10 -21 22v55l107 89v54l-107 88v98c0 12 9 21 21 21h344c10 -2 19 -9 19 -21v-384c0 -9 -6 -16 -12 -19 c-1 -1 -1 -1 -2 -1s-1 -1 -2 -1l-234 -64c-2 0 -4 -1 -6 -1c-12 0 -21 11 -21 22v42h-86zM277 18l192 52v340l-192 -52v-340z"/>
    <glyph glyph-name="glyph388" unicode="&#57638;" d="M128 11c-47 0 -85 38 -85 85v214c0 47 38 85 85 85h80l43 -43h-144c-12 0 -22 -9 -22 -21v-256c0 -12 10 -21 22 -21h256c12 0 21 9 21 21v144l43 -42v-81c0 -47 -39 -85 -86 -85h-213zM436 416c7 1 12 -4 11 -11v-146c-1 -6 -2 -11 -8 -7l-42 43l-152 -151 c-2 -2 -6 -4 -9 -4s-7 2 -9 4l-52 52c-2 2 -3 5 -3 8s1 7 3 9l152 152l-43 43c-5 5 -3 7 4 8h148z"/>
    <glyph glyph-name="glyph389" unicode="&#57639;" d="M0 128v172c0 56 32 97 69 119c21 12 44 19 69 19h258c56 0 97 -32 119 -69c12 -21 18 -44 18 -69v-172c0 -56 -31 -98 -68 -120c-21 -12 -44 -18 -69 -18h-258c-56 0 -98 31 -120 68c-12 21 -18 45 -18 70zM138 352c-29 0 -53 -23 -53 -52v-172c0 -29 24 -53 53 -53h258 c29 0 52 24 52 53v172c0 29 -23 52 -52 52h-258zM128 160v22h85v21h-64l-21 21v22l21 21h107v-21h-85v-22h64l21 -21v-21l-21 -22h-107zM277 160v107h107l21 -21v-64l-21 -22h-107zM320 182h43v64h-43v-64z"/>
    <glyph glyph-name="glyph390" unicode="&#57640;" d="M0 128v172c0 56 32 97 69 119c21 12 44 19 69 19h258c56 0 97 -32 119 -69c12 -21 18 -44 18 -69v-172c0 -56 -31 -98 -68 -120c-21 -12 -44 -18 -69 -18h-258c-56 0 -98 31 -120 68c-12 21 -18 45 -18 70zM138 352c-29 0 -53 -23 -53 -52v-172c0 -29 24 -53 53 -53h258 c29 0 52 24 52 53v172c0 29 -23 52 -52 52h-258zM128 160v107h43v-43h42v43h43v-107h-43v43h-42v-43h-43zM277 160v107h107l21 -21v-64l-21 -22h-107zM320 182h43v64h-43v-64z"/>
    <glyph glyph-name="glyph391" unicode="&#57641;" d="M0 128v172c0 56 32 97 69 119c21 12 44 19 69 19h258c56 0 97 -32 119 -69c12 -21 18 -44 18 -69v-172c0 -56 -31 -98 -68 -120c-21 -12 -44 -18 -69 -18h-258c-56 0 -98 31 -120 68c-12 21 -18 45 -18 70zM138 352c-29 0 -53 -23 -53 -52v-172c0 -29 24 -53 53 -53h258 c29 0 52 24 52 53v172c0 29 -23 52 -52 52h-258zM128 182v64l21 21h86l21 -21v-22h-43v22h-42v-64h42v21h43v-21l-21 -22h-86zM277 182v64l22 21h85l21 -21v-22h-42v22h-43v-64h43v21h42v-21l-21 -22h-85z"/>
    <glyph glyph-name="glyph392" unicode="&#57642;" d="M0 128v172c0 56 32 97 69 119c21 12 44 19 69 19h258c56 0 97 -32 119 -69c12 -21 18 -44 18 -69v-172c0 -56 -31 -98 -68 -120c-21 -12 -44 -18 -69 -18h-258c-56 0 -98 31 -120 68c-12 21 -18 45 -18 70zM138 352c-29 0 -53 -23 -53 -52v-172c0 -29 24 -53 53 -53h258 c29 0 52 24 52 53v172c0 29 -23 52 -52 52h-258zM135 214l100 74v-149zM299 139v149l99 -74z"/>
    <glyph glyph-name="glyph393" unicode="&#57643;" d="M0 128v172c0 56 32 97 69 119c21 12 44 19 69 19h258c56 0 97 -32 119 -69c12 -21 18 -44 18 -69v-172c0 -56 -31 -98 -68 -120c-21 -12 -44 -18 -69 -18h-258c-56 0 -98 31 -120 68c-12 21 -18 45 -18 70zM138 352c-29 0 -53 -23 -53 -52v-172c0 -29 24 -53 53 -53h258 c29 0 52 24 52 53v172c0 29 -23 52 -52 52h-258zM128 118v192h277v-192h-277zM256 214c0 30 -14 53 -41 53h-44v-107h44c28 0 41 23 41 54zM318 267c-27 0 -41 -23 -41 -53c0 -31 13 -54 41 -54h45v107h-45z"/>
    <glyph glyph-name="glyph394" unicode="&#57644;" d="M0 128v172c0 41 18 75 40 97s57 41 98 41h258c41 0 75 -19 97 -41s40 -56 40 -97v-172c0 -41 -18 -76 -40 -98s-56 -40 -97 -40h-258c-41 0 -76 18 -98 40s-40 57 -40 98zM138 352c-29 0 -53 -23 -53 -52v-172c0 -29 24 -53 53 -53h258c28 0 52 25 52 53v172 c0 29 -23 52 -52 52h-258zM128 160v22h85v21h-85v64h128v-21h-85v-22h53l21 -21v-21l-21 -22h-96zM278 160v43h42v-43h-42zM341 246v21h64v-107h-42v86h-22z"/>
    <glyph glyph-name="glyph395" unicode="&#57645;" d="M0 128v172c0 41 18 75 40 97s57 41 98 41h258c41 0 75 -19 97 -41s40 -56 40 -97v-172c0 -41 -18 -76 -40 -98s-56 -40 -97 -40h-258c-41 0 -76 18 -98 40s-40 57 -40 98zM138 352c-29 0 -53 -23 -53 -52v-172c0 -29 24 -53 53 -53h258c28 0 52 25 52 53v172 c0 29 -23 52 -52 52h-258zM128 182v64l21 21h86v-21h-64v-22h53l21 -21v-21l-21 -22h-75zM171 182h43v21h-43v-21zM277 160v43h43v-43h-43zM341 246v21h64v-107h-42v86h-22z"/>
    <glyph glyph-name="glyph396" unicode="&#57646;" d="M0 128v172c0 41 18 75 40 97s57 41 98 41h258c41 0 75 -19 97 -41s40 -56 40 -97v-172c0 -41 -18 -76 -40 -98s-56 -40 -97 -40h-258c-41 0 -76 18 -98 40s-40 57 -40 98zM138 352c-29 0 -53 -23 -53 -52v-172c0 -29 24 -53 53 -53h258c28 0 52 25 52 53v172 c0 29 -23 52 -52 52h-258zM128 160l86 86h-86v21h128v-21l-85 -86h-43zM278 160v43h42v-43h-42zM341 246v21h64v-107h-42v86h-22z"/>
    <glyph glyph-name="glyph397" unicode="&#57647;" d="M21 203c0 70 32 129 69 166s96 69 166 69c74 0 128 -31 166 -69c28 -28 48 -62 60 -104c6 -20 9 -41 9 -62c0 -74 -31 -128 -69 -166c-28 -28 -62 -48 -104 -60c-20 -6 -41 -9 -62 -9c-70 0 -129 32 -166 69s-69 96 -69 166zM107 203c0 -60 34 -105 74 -129 c23 -13 48 -20 75 -20c60 0 105 34 129 74c13 23 20 48 20 75c0 60 -34 105 -74 129c-23 13 -48 20 -75 20c-60 0 -105 -34 -129 -74c-13 -23 -20 -48 -20 -75zM192 182v64l21 21h86l21 -21v-22h-43v22h-42v-64h42v21h43v-21l-21 -22h-86z"/>
    <glyph glyph-name="glyph398" unicode="&#57648;" d="M21 203c0 70 32 129 69 166s96 69 166 69c74 0 128 -31 166 -69c28 -28 48 -62 60 -104c6 -20 9 -41 9 -62c0 -74 -31 -128 -69 -166c-28 -28 -62 -48 -104 -60c-20 -6 -41 -9 -62 -9c-70 0 -129 32 -166 69s-69 96 -69 166zM107 203c0 -60 34 -105 74 -129 c23 -13 48 -20 75 -20c60 0 105 34 129 74c13 23 20 48 20 75c0 60 -34 105 -74 129c-23 13 -48 20 -75 20c-60 0 -105 -34 -129 -74c-13 -23 -20 -48 -20 -75zM192 160v107h107l21 -21v-32l-21 -22v-10h21v-22h-64v22h-21v-22h-43zM235 203h42v43h-42v-43z"/>
    </font>
</defs>
</svg>
