<?xml version="1.0" standalone="no"?>
<!DOCTYPE svg PUBLIC "-//W3C//DTD SVG 1.1//EN" "http://www.w3.org/Graphics/SVG/1.1/DTD/svg11.dtd">
<svg xmlns="http://www.w3.org/2000/svg">
<metadata>Generated by Fontastic.me</metadata>
<defs>
<font id="ddsicon" horiz-adv-x="512">
<font-face font-family="ddsicon" units-per-em="512" ascent="480" descent="-32"/>
<missing-glyph horiz-adv-x="512" />

<glyph unicode="&#97;" d="M326 227l36 93l37-93z m-201 129c30 0 48-19 48-48c0-33-22-55-55-55l-22 0l0 103z m311 150c40 0 73-33 73-73l0-358c0-40-33-73-73-73l-358 0c-40 0-72 33-72 73l0 358c0 40 32 73 72 73z m-306-365c-17 0-34 4-34 21l0 76l24 0c30-39 49-65 77-109l141 0l0 12c-12 1-35 5-35 16c0 12 6 24 10 35c2 6 3 13 7 21l85 0l19-53c1-2 1-7 1-9c0-7-20-9-30-10l0-12l99 0l0 12c-18 1-30 12-35 25l-80 207l-13 0c-22-57-56-144-79-201c-6-16-14-25-33-29c-19 4-28 11-39 26c-24 33-34 46-58 79c31 10 58 24 58 64c0 41-35 58-76 58l-110 0l0-12c11-1 28-4 30-12c1-4 1-6 1-10l0-174c0-19-13-20-31-21l0-12l101 0z m124 2c4 0 6-2 8-2l0-12l-14 0l0 12c1 0 4 2 6 2z"/>
<glyph unicode="&#98;" d="M279 142c-14-17-24-40-24-65l0-3l-40 36l-124-113l0 181l33 10l8-61l53 40l30-42c11 13 22 27 32 40z m63 54c-12-2-23-6-33-12l3 21z m28-169c-33 28-64 58-97 86l50 53l49-45l87 94l48-46z m-268 226l-2 1c-17 2-35 4-52 6l33 43l-46 26l46 27l-33 43l54 6l-14 52l51-15l8 54l42-33l26 46l26-46l43 33l7-52l52 13l-14-52l52-7l-31-42l45-27l-45-26l31-43l-51-6l0-1c4-17 9-34 13-51c-17 4-34 9-51 13l-8-52l-39 30l-8-7l-22-37l-23 39l-6 5l-39-30l-8 52c-17-4-34-9-51-13c4 16 10 35 14 51z"/>
<glyph unicode="&#99;" d="M43 506l0-426l-43 0l0 426z m85-426l-43 0l0 426l43 0z m171 0l-86 0l0 426l86 0z m85 0l-43 0l0 426l43 0z m128 426l0-426l-85 0l0 426z m-341-469l0-43l-128 0l0 43z m42-4l43 0l0-39l-43 0z m86 0l42 0l0-39l-42 0z m170 0l0-39l-85 0l0 39z"/>
<glyph unicode="&#100;" d="M-5 252c0 82 34 143 76 185c31 31 69 54 116 67c23 6 45 10 69 10c52 0 98-16 132-36c38-22 72-56 94-94c20-34 35-80 35-132c0-52-15-98-35-132c-33-57-87-101-157-120c-23-6-45-9-69-9c-82 0-143 35-185 77c-31 31-54 68-67 115c-6 23-9 45-9 69z m69 0c0-37 10-71 30-102l264 265c-31 20-65 29-102 29c-57 0-106-26-136-56c-30-30-56-78-56-136z m90-162c31-20 65-30 102-30c57 0 106 27 136 57c30 30 56 78 56 135c0 37-10 72-30 103z"/>
<glyph unicode="&#101;" d="M21-4c-12 0-21 10-21 22l0 341l491 0l0-341c0-12-10-22-22-22z m448 470c12 0 22-10 22-22l0-64l-491 0l0 64c0 12 9 22 21 22l43 0l0 21c0 12 9 21 21 21l22 0c12 0 21-9 21-21l0-21l235 0l0 21c0 12 9 21 21 21l21 0c12 0 22-9 22-21l0-21z m-426-427l64 0l0 64l-64 0z m0 85l64 0l0 64l-64 0z m0 86l64 0l0 64l-64 0z m85-171l64 0l0 64l-64 0z m0 85l64 0l0 64l-64 0z m0 86l64 0l0 64l-64 0z m85-171l64 0l0 64l-64 0z m0 85l64 0l0 64l-64 0z m0 86l64 0l0 64l-64 0z m86-171l64 0l0 64l-64 0z m0 85l64 0l0 64l-64 0z m0 86l64 0l0 64l-64 0z m85-171l64 0l0 64l-64 0z m0 85l64 0l0 64l-64 0z m0 86l64 0l0 64l-64 0z"/>
<glyph unicode="&#102;" d="M23 2l0 20l19 0l0 19l20 0l0 388l388 0l0-388l20 0l0-19l19 0l0-20l-194 0l0 58l-78 0l0-58z m39 446l39 39l97 0l19 19l78 0l19-19l97 0l39-39z m59-349l77 0l0 39l-77 0z m0 77l77 0l0 39l-77 0z m0 78l77 0l0 39l-77 0z m0 78l77 0l0 39l-77 0z m96-233l78 0l0 39l-78 0z m0 77l78 0l0 39l-78 0z m0 78l78 0l0 39l-78 0z m0 78l78 0l0 39l-78 0z m97-233l77 0l0 39l-77 0z m0 77l77 0l0 39l-77 0z m0 78l77 0l0 39l-77 0z m0 78l77 0l0 39l-77 0z"/>
<glyph unicode="&#103;" d="M409 299c0-34-20-52-56-52l-18 0l0 106l24 0c34 0 50-20 50-54z m25 205c40 0 73-32 73-72l0-361c0-40-33-73-73-73l-361 0c-40 0-72 33-72 73l0 361c0 40 32 72 72 72z m-220-148c-16 10-35 17-60 17c-55 0-90-35-105-76c-6-16-8-33-8-52c0-57 27-98 67-115c14-6 26-9 41-9c52 0 81 25 97 66l-13 6c-10-29-32-53-71-53c-42 0-65 31-75 65c-4 12-6 27-6 42c0 49 15 88 46 104c10 5 19 7 30 7c42 0 59-41 66-76l14 0l-1 85l-14 0z m85-196c0-19-15-21-32-22l0-12l103 0l0 12c-12 0-29 1-33 10c-1 2-2 8-2 12l0 72l28 0c39 0 67 16 81 42c5 10 8 22 8 34c0 39-36 59-77 59l-110 0l0-11c11-1 29-4 33-13c1-4 1-6 1-10z"/>
<glyph unicode="&#104;" d="M441 502c40 0 74-34 74-74l0-363c0-40-34-74-74-74l-364 0c-40 0-73 34-73 74l0 363c0 40 33 74 73 74z m-161-139l-99 0l0-12c7 0 28-6 33-10c10-7 10-27 10-48l0-116l-137 186l-70 0l0-12c11 0 28-8 34-14c6-5 10-17 10-28l0-119c0-25 1-40-10-49c-2-2-25-9-30-9l0-12l100 0l0 12c-6 0-28 6-32 10c-10 9-12 28-12 49l0 126l148-200l15 0l0 179c0 20 1 40 11 47c4 2 23 8 29 8z m192-11c-16 10-34 16-60 16c-56 0-91-35-107-76c-6-16-9-32-9-52c0-59 28-101 69-118c14-6 26-7 41-7c52 0 80 25 97 66l-12 6c-10-29-34-54-73-54c-42 0-66 31-76 65c-4 12-5 29-5 44c0 49 14 89 45 105c10 5 20 6 31 6c42 0 60-42 67-77l15 0l-3 87l-14 0z"/>
<glyph unicode="&#105;" d="M434 504c39 0 71-32 71-71l0-352c0-39-32-71-71-71l-352 0c-39 0-72 32-72 71l0 352c0 39 33 71 72 71z m-170-153l0 11l-89 0l0-11c7 0 24-6 29-10c8-6 10-26 10-44l0-104l-124 169l-63 0l0-11c22-1 40-16 40-39l0-109c0-22 1-35-9-43c-2-2-22-8-27-8l0-11l91 0l0 11c-6 0-27 6-31 10c-8 7-9 25-9 44l0 113l134-180l13 0l0 161c0 18 0 36 10 42c4 2 19 9 25 9z m48-181c0-17-12-18-29-18l0-11l90 0c53 0 92 24 110 60c7 13 10 30 10 48c0 58-30 92-75 107c-13 4-26 6-39 6l-95 0l0-11c15-1 28-6 28-22z m34 178l25 0c42 0 68-25 79-58c4-12 6-25 6-40c0-56-22-96-78-96c-21 0-32 4-32 25z"/>
<glyph unicode="&#106;" d="M334 350l29 0c46 0 74-27 85-62c4-12 6-28 6-44c0-60-24-105-84-105c-22 0-36 7-36 28z m-165-46c0-32-23-55-55-55l-21 0l0 101l29 0c30 0 47-17 47-46z m265 196c40 0 72-31 72-71l0-357c0-40-32-72-72-72l-357 0c-40 0-72 32-72 72l0 357c0 40 32 71 72 71z m-241-374l65 0l0 12c-24 1-37 13-48 28c-24 32-33 46-58 78c31 9 58 24 58 64c0 41-34 57-75 57l-111 0l0-12c11-1 29-4 31-11c1-2 2-6 2-10l0-174c0-19-16-19-33-20l0-12l101 0l0 12c-12 0-27 1-31 10c-1 2-1 6-1 10l0 76l24 0c30-37 49-66 76-108z m106 32c0-17-17-20-34-20l0-12l100 0c57 0 99 26 119 65c7 15 11 33 11 53c0 62-32 99-81 114c-14 5-29 7-43 7l-103 0l0-12c16-1 31-6 31-23z"/>
<glyph unicode="&#107;" d="M509 0l-506 0l0 507l506 0z m-51 456l-404 0l0-405l404 0z m-145-215l104 0l0-31l-22-26l45-43l0-39l-137 0l0 12l-237 0l0 32l108 107l-95 96l0 31l120 0l51-51l51 51l113 0l0-31z m-209 120l0-12l228-228l18 0l0 12l-227 228z"/>
<glyph unicode="&#109;" d="M334 506c21 0 38-18 38-39l0-39l107 0c5 0 10-4 10-9l0-20c0-6-4-9-10-9l-407 0c-6 0-10 3-10 9l0 20c0 5 5 9 10 9l106 0l0 39c0 21 18 39 39 39z m0-78l0 39l-117 0l0-39z m-194-427c-21 0-39 19-39 40l0 310l349 0l0-310c0-21-18-40-39-40z m0 40l38 0l0 271l-38 0z m77 0l39 0l0 271l-39 0z m78 0l39 0l0 271l-39 0z m77 0l39 0l0 271l-39 0z"/>
<glyph unicode="&#110;" d="M458 512c30 0 55-26 55-56l0-403c0-30-25-55-55-55l-403 0c-30 0-56 25-56 55l0 403c0 30 26 56 56 56z m-336-344l42 0l-48 89l46 85l-42 0l-14-32c-4-10-7-18-11-29c-4 10-8 18-13 29l-14 32l-42 0l45-86l-47-88l42 0l14 31c5 12 9 22 12 32l1 0c5-10 8-20 14-32z m201 0l36 0l-9 174l-48 0l-17-58c-5-19-11-42-16-62c-4 20-9 42-14 62l-16 58l-49 0l-10-174l34 0l3 66c1 22 2 48 3 72c4-23 10-48 15-68l17-67l29 0l19 68c6 20 13 45 18 67l1 0c0-25 0-51 1-72z m165 0l0 33l-65 0l0 141l-36 0l0-174z"/>
<glyph unicode="&#111;" d="M49 299l0-41l-41 0l0 248l207 0l0-124l41 0l0-42l-41 0l0-41z m455 0l-83 0l0-41l83 0l0-83l-124 0l0 124l-83 0l0 124l-41 0l0 83l248 0z m-455 165l0-124l124 0l0 124z m290-124l124 0l0 124l-124 0z m-248 42l0 41l41 0l0-41z m289 41l41 0l0-41l-41 0z m-248-165l0-42l83 0l0-206l-207 0l0 206l83 0l0 42z m248-166l0-41l-83 0l0 41l-41 0l0 42l41 0l0 82l-82 0l0 42l124 0l0-124l82 0l0-42z m-207 83l-124 0l0-124l124 0z m-41-83l-41 0l0 42l41 0z m331 42l41 0l0-42l-41 0z m-207-83l41 0l0-41l-41 0z m248 0l0-41l-124 0l0 41z"/>
<glyph unicode="&#112;" d="M293 195l0-50l50 0l0-48l-50 0l0-52l-50 0l0 52l-50 0l0 48l50 0l0 50z m162 311c31 0 55-24 55-55l0-399c0-31-24-55-55-55l-400 0c-31 0-54 24-54 55l0 399c0 31 23 55 54 55z m-263-59l-11-176l34 0l3 67c1 22 2 49 3 73l1 0c4-23 9-48 14-69l18-68l29 0l20 69c6 21 13 46 18 68c0-26 1-51 2-72l2-68l36 0l-9 176l-48 0l-17-58c-5-20-11-43-16-63c-4 21-9 42-14 62l-16 59z m-70-176l43 0l-49 90l47 86l-43 0l-13-32c-4-10-8-18-12-29c-4 10-7 18-12 29l-15 32l-42 0l45-87l-47-89l42 0l14 32c5 12 10 22 13 32c5-10 9-20 15-32z m146-246c52 0 95 43 95 95c0 52-43 97-95 97c-52 0-95-45-95-97c0-52 43-95 95-95z m224 246l0 34l-65 0l0 142l-37 0l0-176z"/>
<glyph unicode="&#113;" d="M-21 252l288 287l0-1l74-74l0 66l86 0l0-151l128-127l-86 0l0-256l-149 0l0 171l-107 0l0-171l-149 0l0 256z"/>
<glyph unicode="&#114;" d="M291 509l-1-156l168-2l0-360l-411 0l0 516z m-110-51l0-18l91 0l0 18z m0-35l0-17l91 0l0 17z m0-34l0-19l91 0l0 19z m-98 69l0-89l78 0l0 89z m338-380l0 19l-86 0l0-19z m0 34l0 19l-86 0l0-19z m0 34l0 20l-86 0l0-20z m0 35l0 19l-339 0l0-19z m0 34l0 19l-339 0l0-19z m0 36l0 18l-339 0l0-18z m0 34l0 18l-339 0l0-18z m0 52l-339 0l0-18l339 0z m-97 172l135-131l-135 0z"/>
<glyph unicode="&#115;" d="M42 241z m360 54c16-2 26-1 35 2c34-46 31-105 31-105c-7-110-79-136-79-136c-54-34-144-13-144-13c-149-49-222 23-222 23c-42 50 2 90 2 90c-46 54-3 96-3 96c-17 55 26 93 26 93c-27 26-2 64-2 64c36 62 222 44 222 44c21-2 34-4 47-10c-4-8-6-18-6-27c-25 9-61 14-103 14c-74 0-134-18-134-40c0-22 60-40 134-40c43 0 81 7 105 16c5-15 13-28 23-38c15-15 40-29 68-33z m-334 27c-21-15-10-37-10-37c21-26 99-26 99-26c15 35 40 44 40 44c-42-10-129 19-129 19z m-26-81c-16-11-1-35-1-35c20-32 107-38 107-38c-9 20-3 48-3 48c-65-4-103 25-103 25z m3-128c0 0 37-41 137-34c0 0-20 20-25 45c0 0-65-3-114 29c0 0-18-21 2-40z m262-47c70 0 126 57 126 127c0 70-56 126-126 126c-70 0-127-56-127-126c0-70 57-127 127-127z m31 338c0 1 0 1 1 2l26 27c1 1 2 1 3 1c1 0 1 0 2-1l32-32c1-1 2-1 3-1c1 0 1 0 2 1l72 72c1 1 2 1 3 1c1 0 2 0 3-1l26-26c1-1 1-2 1-3c0-1 0-1-1-2l-104-104c-1-1-1-1-2-1c-1 0-2 0-3 1l-63 63c-1 1-1 2-1 3z"/>
<glyph unicode="&#116;" d="M42 245z m360 54c16-2 26-1 35 2c34-46 31-105 31-105c-7-110-79-136-79-136c-54-34-144-13-144-13c-149-49-222 23-222 23c-42 50 2 90 2 90c-46 54-3 96-3 96c-17 55 26 93 26 93c-27 26-2 64-2 64c36 62 222 44 222 44c21-2 34-4 47-10c-4-8-6-18-6-27c-25 9-61 14-103 14c-74 0-134-18-134-40c0-22 60-40 134-40c43 0 81 7 105 16c5-15 13-28 23-38c15-15 40-29 68-33z m-334 27c-21-15-10-37-10-37c21-26 99-26 99-26c15 35 40 44 40 44c-42-10-129 19-129 19z m-26-81c-16-11-1-35-1-35c20-32 107-38 107-38c-9 20-3 48-3 48c-65-4-103 25-103 25z m3-128c0 0 37-41 137-34c0 0-20 20-25 45c0 0-65-3-114 29c0 0-18-21 2-40z m262-47c70 0 126 57 126 127c0 70-56 126-126 126c-70 0-127-56-127-126c0-70 57-127 127-127z m205 314l-41-40l-40 40l-43-40l-40 40l43 40l-43 43l40 41l43-44l40 44l41-41l-44-43z"/>
<glyph unicode="&#117;" d="M43 18c-12 0-22 9-22 21l0 427c0 12 10 21 22 21l85 0l0-107l256 0l0 107l21 0l86-85l0-363c0-12-10-21-22-21l-42 0l0 213l-342 0l0-213z m277 384l0 85l43 0l0-85z"/>
<glyph unicode="&#118;" d="M376 504c74 0 134-60 134-134l0-238c0-74-60-134-134-134l-239 0c-74 0-132 60-132 134l0 238c0 74 58 134 132 134z m-40-180c-4-41-20-62-65-62l-44 0l0 153l64 0c16 0 31-1 45-2c24-4 53-51 59-73l20 0l0 97l-300 0l0-20c19-1 45-6 51-20c2-5 4-11 4-17l0-274c0-22-12-28-34-30c-9-1-16-3-21-3l0-19l166 0l0 19c-7 0-34 6-39 8c-10 5-15 13-15 27l0 131l44 0c36 0 51-9 60-38c4-10 5-21 5-28l20 0l0 151z"/>
<glyph unicode="&#119;" d="M440 506c40 0 73-34 73-74l0-364c0-40-33-73-73-73l-364 0c-40 0-74 33-74 73l0 364c0 40 34 74 74 74z m-87-444l104 0l0 19c-39 1-57 20-76 45c-39 52-54 74-94 126c50 15 94 40 94 104c0 66-55 91-121 91l-179 0l0-19c17-1 44-7 49-19c1-5 4-10 4-16l0-278c0-30-24-32-53-34l0-19l164 0l0 19c-20 0-46 2-51 16c-2 5-3 12-3 18l0 122l39 0c47-61 79-105 123-175z m-116 364c47 0 76-30 76-77c0-52-36-90-87-90l-35 0l0 167z"/>
<glyph unicode="&#120;" d="M119 351c29 0 46-18 46-46c0-31-21-53-52-53l-22 0l0 99z m317 155c40 0 73-33 73-73l0-358c0-40-33-73-73-73l-358 0c-40 0-72 33-72 73l0 358c0 40 32 73 72 73z m-322-268c29-36 47-64 74-105l62 0l0 12c-23 1-34 12-45 27c-23 31-33 44-57 75c30 8 57 24 57 63c0 40-32 54-72 54l-107 0l0-12c11-1 27-4 29-11c1-2 1-6 1-10l0-167c0-18-13-18-30-19l0-12l97 0l0 12c-12 0-26 2-30 10c-1 2-2 5-2 9l0 74z m384-93c-16 1-30 5-30 21l0 167c0 17 14 19 30 19l0 12l-96 0l0-12c15-1 31-6 31-22l0-69l-108 0l0 72c0 17 14 19 30 19l0 12l-95 0l0-12c15-1 30-6 30-22l0-166c0-18-13-18-30-19l0-12l95 0l0 12c-16 1-30 5-30 21l0 81l108 0l0-83c0-18-14-18-31-19l0-12l96 0z"/>
<glyph unicode="&#121;" d="M236 390c0-65-53-117-118-117c-65 0-115 52-115 117c0 65 50 116 115 116c65 0 118-51 118-116z m273 0c0-65-51-117-116-117c-65 0-115 52-115 117c0 65 50 116 115 116c65 0 116-51 116-116z m-273-275c0-65-53-115-118-115c-65 0-115 50-115 115c0 65 50 116 115 116c65 0 118-51 118-116z m273 0c0-65-51-115-116-115c-65 0-115 50-115 115c0 65 50 116 115 116c65 0 116-51 116-116z"/>
<glyph unicode="&#122;" d="M75 188c-6 0-11 5-11 11l0 64c0 6 5 11 11 11l362 0c6 0 11-5 11-11l0-64c0-6-5-11-11-11z"/>
<glyph unicode="&#65;" d="M0 3l51 131l87-87l-131-50c-6-2-9 0-7 6z m77 158l274 274l87-87l-274-275z m300 300l44 43c3 3 7 5 11 5c4 0 8-2 11-5l65-65c3-3 4-7 4-11c0-4-1-8-4-11l-44-43z"/>
<glyph unicode="&#66;" d="M82 132c-44 0-79 38-79 82c0 40 29 70 63 78c-1 5-1 10-1 16c0 46 20 83 44 107c24 24 62 45 108 45c67 0 117-42 138-89c13 4 24 6 37 6c48 0 87-28 105-61c11-18 15-40 15-62c0-48-24-86-56-105c-17-11-38-17-59-17l-9 0c1 0-3 15-4 17c-1 5-3 8-5 11l-101 115c-8 10-17 14-30 14c-13 0-22-5-28-13l-105-117c-4-5-6-18-7-27z m66 0c-3 0-4 4-2 6l99 116c1 1 2 2 3 2c2 0 3-1 4-2l98-116c2-2 1-6-2-6l-60 0l0-116c0-5-1-8-7-8l-66 0c-6 0-9 3-9 8l0 116z"/>
<glyph unicode="&#108;" d="M43 508l469 0l0-512l-469 0z m426-469l0 384l-384 0l0-384z m-298 299l-43 0l0 42l43 0z m256 0l-214 0l0 42l214 0z m-256-86l-43 0l0 43l43 0z m256 0l-214 0l0 43l214 0z m-256-85l-43 0l0 43l43 0z m256 0l-214 0l0 43l214 0z m-256-85l-43 0l0 42l43 0z m256 42l0-42l-214 0l0 42z"/>
<glyph unicode="&#67;" d="M75-6c-16 0-32 6-32 22l0 476c0 16 16 27 32 27c16 0 32-11 32-27l0-474c0-16-16-24-32-24z m53 226l0 278c10-7 31-16 46-21c20-6 54-11 82-11c76 0 107 55 189 43c14-2 30-5 46-11l0-278c-25 9-52 17-83 13c-47-6-76-31-119-41c-11-3-22-4-33-4c-42 0-79 9-107 21c-7 3-13 6-16 8z"/>
<glyph unicode="&#68;" d="M72 72c0 11 9 20 20 20l244 0l19 80l-293 0c-10 0-18 8-20 16l-40 180c-3 13 8 25 20 25l385 0l16 65c2 8 10 15 19 15l50 0c11 0 21-9 21-20c0-11-10-21-21-21l-34 0l-86-360c-2-8-10-20-20-20l-21 0c1-4 1-7 1-10c0-16-14-30-30-30c-16 0-30 14-30 30c0 3 1 6 2 10l-104 0c1-3 2-6 2-10c0-16-14-30-30-30c-16 0-30 14-30 30c0 3 1 6 2 10l-22 0c-11 0-20 9-20 20z m-25 280l4-19l21 0l0 19z m9-40l4-20l12 0l0 20z m9-39l4-21l3 0l0 21z m27-60l20 0l0 19l-20 0z m0 39l20 0l0 21l-20 0z m0 40l20 0l0 20l-20 0z m0 41l20 0l0 19l-20 0z m40-120l20 0l0 19l-20 0z m0 39l20 0l0 21l-20 0z m0 40l20 0l0 20l-20 0z m0 41l20 0l0 19l-20 0z m40-120l20 0l0 19l-20 0z m0 39l20 0l0 21l-20 0z m0 40l20 0l0 20l-20 0z m0 41l20 0l0 19l-20 0z m40-120l20 0l0 19l-20 0z m0 39l20 0l0 21l-20 0z m0 40l20 0l0 20l-20 0z m0 41l20 0l0 19l-20 0z m40-120l20 0l0 19l-20 0z m0 39l20 0l0 21l-20 0z m0 40l20 0l0 20l-20 0z m0 41l20 0l0 19l-20 0z m40-120l20 0l0 19l-20 0z m0 39l20 0l0 21l-20 0z m0 40l20 0l0 20l-20 0z m0 41l20 0l0 19l-20 0z m40-120l20 0l0 19l-20 0z m0 39l20 0l0 21l-20 0z m0 40l20 0l0 20l-20 0z m0 41l20 0l0 19l-20 0z m40-81l2 0l5 21l-7 0z m12 40l5 20l-17 0l0-20z m-12 41l20 0l5 19l-25 0z"/>
<glyph unicode="&#69;" d="M64 123c0 3 2 7 4 9l120 120l-120 121c-2 2-4 6-4 9c0 3 2 6 4 8l50 51c2 2 6 3 9 3c3 0 6-1 8-3l121-121l121 121c2 2 5 3 8 3c3 0 7-1 9-3l51-51c2-2 3-5 3-8c0-3-1-7-3-9l-121-121l121-120c2-2 3-6 3-9c0-3-1-6-3-8l-51-51c-2-2-6-4-9-4c-3 0-6 2-8 4l-121 120l-120-120c-2-2-6-4-9-4c-3 0-7 2-9 4l-50 51c-2 2-4 5-4 8z"/>
<glyph unicode="&#70;" d="M-4 226c0 3 1 6 3 8l70 69c2 2 4 3 7 3c3 0 6-1 8-3l83-83c2-2 5-4 8-4c3 0 5 2 7 4l224 223c2 2 5 4 8 4c3 0 5-2 7-4l70-68c2-2 3-5 3-8c0-3-1-6-3-8l-309-308c-2-2-4-3-7-3c-3 0-6 1-8 3l-168 167c-2 2-3 5-3 8z"/>
<glyph unicode="&#71;" d="M325 486l185 0l0-443z m-130 0l-185-443l0 443z m65-163l118-280l-78 0l-35 90l-86 0z"/>
<glyph unicode="&#72;" d="M35-4c-7 0-14 6-14 13l0 295c0 7 7 12 14 12l306 0l0 107c0 30-13 43-42 43l-107 0c-29 0-43-13-43-43l0-21l-85 0l0 21c0 37 19 69 39 89c20 20 52 39 88 39l109 0c36 0 68-19 88-39c20-20 39-52 39-89l0-107l28 0c7 0 14-5 14-12l0-295c0-7-7-13-14-13z m210 241c-23 0-42-19-42-42c0-17 10-30 21-37l0-55c0-6 5-11 11-11l21 0c6 0 11 5 11 11l0 55c11 7 21 20 21 37c0 23-20 42-43 42z"/>
<glyph unicode="&#73;" d="M0 244c6 11 19 28 29 39c32 38 75 73 125 94c26 10 63 19 100 19c74 0 128-28 170-60c25-19 45-40 63-62c7-9 13-16 16-22l5-8c-14-14-40-36-58-50c-22-17-59-39-87-52c-28-13-70-25-109-25c-50 0-91 16-125 33c-43 21-79 49-112 78c-6 5-9 9-12 12z m156-71c-22 22-39 55-39 96c0 7 0 14 2 23c-28-14-52-30-71-48c34-31 70-54 108-71z m30 96c0 26 13 45 29 56c-18-3-36-9-54-15c-6-14-9-27-9-41c0-42 22-73 50-89c16-9 34-14 52-14c41 0 72 25 88 52c9 16 14 33 14 51c0 14-4 28-10 42c-18 6-35 12-53 14c16-11 29-30 29-56c0-38-30-69-68-69c-38 0-68 31-68 69z m53-31c-10 5-17 14-19 26l-14-14c4-11 11-19 20-25z m111-67c42 17 88 47 117 73c-20 18-50 36-78 50c2-10 2-17 2-25c0-42-19-76-41-98z"/>
<glyph unicode="&#74;" d="M10 252c0 69 30 126 67 163c37 37 94 68 163 68c70 0 125-30 163-68l-164-163l0-231c-46 0-85 14-115 31c-50 29-89 77-106 138c-6 20-8 42-8 62z m250-250l0 231l164-163c-46-46-100-68-164-68z m185 413c38-38 68-94 68-163c0-69-30-127-68-164l-163 164z"/>
<glyph unicode="&#75;" d="M5 301c0 61 28 111 60 143c32 32 82 59 143 59c61 0 111-27 143-59c32-32 59-82 59-143c0-40-10-76-32-110l125-125c2-2 4-5 4-8c0-3-2-6-4-8l-45-45c-2-2-5-3-8-3c-3 0-5 1-7 3l-126 125c-33-22-69-32-109-32c-61 0-111 27-143 59c-32 32-60 83-60 144z m65 0c0-41 18-76 40-98c22-22 57-41 98-41c41 0 76 19 98 41c22 22 40 57 40 98c0 41-18 75-40 97c-22 22-57 41-98 41c-41 0-76-19-98-41c-22-22-40-56-40-97z"/>
<glyph unicode="&#76;" d="M500 103c6 0 12-5 12-11l0-96l-512 0l0 96c0 6 5 11 11 11z m-433 194c0 3 1 5 3 7l50 50c2 2 5 3 8 3c3 0 6-1 8-3l60-60c2-2 5-4 8-4c3 0 6 2 8 4l169 169c2 2 4 3 7 3c3 0 6-1 8-3l50-50c2-2 3-4 3-7c0-3-1-6-3-8l-234-235c-2-2-5-3-8-3c-3 0-6 1-8 3l-126 126c-2 2-3 5-3 8z m360-258l42 0l0 21l-42 0z"/>
<glyph unicode="&#77;" d="M171 466c12 0 21-10 21-22l0-298l85 0l-138-139l-139 139l85 0l0 298c0 12 10 22 22 22z m170-448c-12 0-21 9-21 21l0 299l-85 0l138 138l139-138l-85 0l0-299c0-12-10-21-22-21z"/>
<glyph unicode="&#78;" d="M4 111l0 254l18 0l0-188l19 0l0 188l19 0l0-113l18 0l0 113l19 0l0-113l19 0l0 113l19 0l0-113l18 0l0 113l20 0l0-113l18 0l0 113l19 0l0-188l19 0l0 188l18 0l0-113l19 0l0 113l19 0l0-113l19 0l0 113l18 0l0-113l20 0l0 113l18 0l0-113l19 0l0 113l19 0l0-188l19 0l0 188l18 0l0-113l19 0l0 113l19 0l0-113l18 0l0 113l20 0l0-254c0-5-5-9-10-9l-489 0c-5 0-8 4-8 9z"/>
<glyph unicode="&#79;" d="M493 480c11 0 19-9 19-19l0-432c0-10-8-19-19-19l-474 0c-10 0-19 9-19 19l0 432c0 10 9 19 19 19z m-24-43l-426 0l0-314l105 77l127-56l-31 67l125 136l100-123z m-323-49c32 0 57-26 57-58c0-32-25-57-57-57c-32 0-57 25-57 57c0 32 25 58 57 58z"/>
<glyph unicode="&#80;" d="M-5 252c0 52 15 98 35 132c33 57 87 101 157 120c23 6 45 10 69 10c52 0 97-16 132-36c57-33 101-86 120-156c6-23 9-46 9-70c0-78-35-144-76-185c-41-41-107-76-185-76c-52 0-98 16-132 36c-57 33-101 86-120 156c-6 23-9 45-9 69z m208-85c-6 0-11-5-11-11l0-42c0-6 5-11 11-11l128 0c6 0 10 5 10 11l0 42c0 6-4 11-10 11l-32 0l0 139c0 6-5 10-11 10l-85 0c-6 0-11-4-11-10l0-43c0-6 5-11 11-11l32 0l0-85z m42 235c-6 0-10-5-10-11l0-43c0-6 4-10 10-10l43 0c6 0 11 4 11 10l0 43c0 6-5 11-11 11z"/>
<glyph unicode="&#82;" d="M0 82l149 149l107-107l107 107l149-149z m0 42l0 256l128-128z m0 299l512 0l-256-256z m384-171l128 128l0-256z"/>
<glyph unicode="&#83;" d="M171 391c0 59 36 96 96 96c41 0 71-20 85-48c7-14 11-30 11-48l0-64c0-21-8-36-22-47l0-81c26-11 77-37 150-79c16-9 21-17 21-41l0-51c0-6-5-10-11-10l-469 0c-6 0-11 4-11 10l0 51c0 24 6 32 22 41c68 40 118 66 149 79l0 81c-14 11-21 26-21 47z"/>
<glyph unicode="&#84;" d="M128 82l70 299l-47 81l94 47l94-47l-47-81l71-299l-118-107z"/>
<glyph unicode="&#85;" d="M53 188c-6 0-10 6-10 12l0 63c0 6 4 11 10 11l160 0l0 160c0 6 5 10 11 10l64 0c6 0 11-4 11-10l0-160l159 0c6 0 11-5 11-11l0-63c0-6-5-12-11-12l-159 0l0-159c0-6-5-11-11-11l-64 0c-6 0-11 5-11 11l0 159z"/>
<glyph unicode="&#86;" d="M5 146c0 2 2 4 4 6l153 115c5 4 9 2 9-4l0-75l128 0l0-85l-128 0l0-75c0-6-4-8-9-4l-153 115c-2 2-4 5-4 7z m48 170c-6 0-10 5-10 11l0 64c0 6 4 11 10 11l11 0l0-86z m32 0l0 86l22 0l0-86z m43 0l0 86l21 0l0-86z m43 0l0 86l21 0l0-86z m42 0l0 86l128 0l0 74c0 6 4 9 9 5l153-116c2-2 4-4 4-6c0-2-2-4-4-6l-153-116c-5-4-9-1-9 5l0 74z m107-213l0 85l21 0l0-85z m43 0l0 85l21 0l0-85z m42 0l0 85l22 0l0-85z m64 11c0-6-4-11-10-11l-11 0l0 85l11 0c6 0 10-4 10-10z"/>
<glyph unicode="&#87;" d="M21 82c-12 0-21 9-21 21l0 277c0 12 9 22 21 22l256 0c12 0 22-10 22-22l0-277c0-12-10-21-22-21z m22 42l213 0l0 107l-213 0z m0 128l213 0l0 107l-213 0z m85-213l0 21l171 0l64 64l44 0l62 21l0-21l22 0l0-64l-107 0l-43-42l-192 0z m0 128l0 21l43 0l0-21z m0 128l0 21l43 0l0-21z m0 128l0 21l21 22l192 0l43-43l107 0l0-64l-44 0l-63-21l0 21l-21 0l-64 64z m256-277l0 35l85 28l0-34z m0 64l0 35l85 28l0-34z m0 64l0 35l85 28l0-34z"/>
<glyph unicode="&#88;" d="M6 128c0 11 5 21 14 29c-10 10-15 20-15 29l0 38c0 14 8 25 25 37c-5 6-6 12-6 19l0 38c0 14 9 27 26 38c-5 6-7 13-7 20l0 38c0 27 29 47 87 61c44 10 92 11 144 5c55-6 91-20 110-42c10-12 11-26 10-47l0-15c0-5-2-10-6-15c52-17 94-61 111-113c32-95-22-176-86-209c-25-13-51-19-79-19c-21 0-42 4-61 11c-73-18-170-13-231 15c-21 9-37 23-37 53c0 5 1 24 1 29z m54 118c-11-5-24-10-28-22c3-12 19-21 49-29c24-8 52-12 86-13c-1 13-1 23 1 36c-46 4-83 13-108 28z m-11-101c-9-3-15-10-17-18c3-10 14-15 23-20c10-5 22-8 34-10l8-2c31-7 72-6 108-8c-9 11-15 20-20 28c-27 1-55 5-84 10c-29 5-44 10-49 16z m166 168c-35 0-113 17-136 27c-9-4-20-11-25-18l-3-4c5-15 28-22 43-27c28-8 56-12 93-14c6 11 16 23 28 36z m-145 101c5-23 41-28 63-33c25-6 53-9 84-9c35 0 74 4 108 15c9 3 20 6 26 11c5 4 10 8 12 15c-7 18-30 24-50 30c-27 8-60 13-96 13c-37 0-71-5-99-14c-19-7-41-8-48-28z m137-171c-14-36-12-77 4-110c18-36 57-68 103-74c44-7 82 11 106 31c25 21 48 57 50 100c1 42-17 77-39 99c-22 23-57 43-98 43c-65 0-108-42-126-89z"/>
<glyph unicode="&#89;" d="M89 279l28 48l-28 48l48 27l-1 56l56-1l27 48l48-28l47 28l28-48l55 1l-1-56l49-27l-29-48l29-48l-49-27l1-55l-55 1l-28-49l-47 29l-48-29l-27 49l-56-1l1 55z m44 85l21-34l-10-14l36 28l-14 20l24 13l-1 27l27 0l12 23l22-14l27 37l-14-11l-32 22l-20-36l-42 0l0-41z m16-389l0 190l24 0l34-61l60 36l59-36l34 61l24 0l0-190l-117 107z"/>
<glyph unicode="&#90;" d="M-5 252c0 82 34 143 76 185c31 31 69 54 116 67c23 6 45 10 69 10c52 0 98-16 132-36c38-22 72-56 94-94c20-34 35-80 35-132c0-52-15-98-35-132c-33-57-87-101-157-120c-23-6-45-9-69-9c-82 0-143 35-185 77c-31 31-54 68-67 115c-6 23-9 45-9 69z m69 0c0-57 26-105 56-135c30-30 78-57 136-57c57 0 106 27 136 57c30 30 56 78 56 135c0 57-26 106-56 136c-30 30-78 56-136 56c-57 0-106-26-136-56c-30-30-56-78-56-136z m68 69c0 3 2 5 4 7l44 45c2 2 5 3 8 3c3 0 5-1 7-3l61-61l61 61c2 2 4 3 7 3c3 0 6-1 8-3l45-45c2-2 3-5 3-8c0-3-1-5-3-7l-61-61l60-60c2-2 4-5 4-8c0-3-2-5-4-7l-44-45c-2-2-5-3-8-3c-3 0-5 1-7 3l-61 61l-61-61c-2-2-4-3-7-3c-3 0-6 1-8 3l-44 45c-2 2-3 4-3 7c0 3 1 6 3 8l60 60l-60 61c-2 2-4 5-4 8z"/>
<glyph unicode="&#48;" d="M32 18c-6 0-11 4-11 10l0 107c0 6 5 11 11 11l107 0c6 0 10-5 10-11l0-107c0-6-4-10-10-10z m0 170c-6 0-11 5-11 11l0 107c0 6 5 10 11 10l107 0c6 0 10-4 10-10l0-107c0-6-4-11-10-11z m0 171c-6 0-11 5-11 11l0 106c0 6 5 11 11 11l107 0c6 0 10-5 10-11l0-106c0-6-4-11-10-11z m171-341c-6 0-11 4-11 10l0 107c0 6 5 11 11 11l106 0c6 0 11-5 11-11l0-107c0-6-5-10-11-10z m0 170c-6 0-11 5-11 11l0 107c0 6 5 10 11 10l106 0c6 0 11-4 11-10l0-107c0-6-5-11-11-11z m0 171c-6 0-11 5-11 11l0 106c0 6 5 11 11 11l106 0c6 0 11-5 11-11l0-106c0-6-5-11-11-11z m170-341c-6 0-10 4-10 10l0 107c0 6 4 11 10 11l107 0c6 0 11-5 11-11l0-107c0-6-5-10-11-10z m0 170c-6 0-10 5-10 11l0 107c0 6 4 10 10 10l107 0c6 0 11-4 11-10l0-107c0-6-5-11-11-11z m0 171c-6 0-10 5-10 11l0 106c0 6 4 11 10 11l107 0c6 0 11-5 11-11l0-106c0-6-5-11-11-11z"/>
<glyph unicode="&#49;" d="M85-4c-47 0-85 39-85 86l0 213c0 47 38 85 85 85l214 0c8 0 15-1 24-4l-38-38l-221 0c-12 0-21-10-21-22l0-256c0-12 9-21 21-21l256 0c12 0 21 9 21 21l0 93l43 43l0-114c0-47-38-86-85-86z m62 90l35 89l60-60l-88-35c-6-2-9 0-7 6z m54 109l194 194l62-62l-195-194z m212 212l31 31c2 2 5 4 8 4c3 0 6-2 8-4l46-46c2-2 3-5 3-8c0-3-1-5-3-7l-31-31z"/>
<glyph unicode="&#50;" d="M107-4c-47 0-86 39-86 86l0 213c0 47 39 85 86 85l213 0c10 0 20-1 30-5l-37-37l-228 0c-12 0-21-10-21-22l0-256c0-12 9-21 21-21l256 0c12 0 22 9 22 21l0 58l42 42l0-78c0-47-38-86-85-86z m3 215c0 3 1 6 3 8l50 50c2 2 5 3 8 3c3 0 5-1 7-3l61-61c2-2 5-3 8-3c3 0 5 1 7 3l169 169c2 2 5 4 8 4c3 0 6-2 8-4l50-49c2-2 3-5 3-8c0-3-1-5-3-7l-235-235c-2-2-4-3-7-3c-3 0-6 1-8 3l-126 126c-2 2-3 4-3 7z"/>
<glyph unicode="&#51;" d="M0 253c0 9 0 20 2 33l68 17c4 16 10 31 19 46l-36 60c14 17 30 32 47 46l59-35c15 9 30 15 46 19l17 67c13 2 24 2 33 2c9 0 20 0 33-2l17-67c16-4 31-10 46-19l59 35c17-14 34-29 47-46l-36-60c8-14 14-29 19-46l68-17c2-11 2-22 2-33c0-11 0-21-2-32l-68-17c-4-16-11-32-19-47l36-59c-14-17-30-32-47-46l-59 35c-14-8-29-14-46-19l-17-67c-11-2-22-2-33-2c-11 0-22 0-33 2l-17 67c-17 5-32 11-46 19l-59-35c-17 13-33 29-47 46l36 59c-9 15-15 31-19 47l-68 17c-2 13-2 23-2 32z m255 90c-49 0-89-41-89-90c0-49 40-89 89-89c49 0 89 40 89 89c0 49-40 90-89 90z"/>
<glyph unicode="&#52;" d="M1 251c0 8 0 16 1 24l47 12c3 11 8 21 14 32l-25 42c10 12 21 23 33 33l42-26c11 6 21 11 32 14l12 48c8 1 16 1 24 1c8 0 15 0 23-1l11-48c11-3 22-8 33-14l42 26c12-10 23-21 33-33l-25-42c6-11 10-21 13-32l47-12c1-8 2-16 2-24c0-8-1-15-2-23l-47-12c-3-11-7-21-13-32l25-42c-10-12-21-23-33-33l-42 25c-11-6-22-10-33-13l-11-47c-8-1-15-3-23-3c-8 0-16 2-24 3l-12 47c-11 3-21 7-32 13l-42-25c-12 10-23 21-33 33l25 42c-6 11-11 21-14 32l-47 12c-1 8-1 15-1 23z m180 63c-35 0-63-28-63-63c0-35 28-62 63-62c35 0 62 27 62 62c0 35-27 63-62 63z m154-197c0 4 0 7 1 11l23 6c1 5 3 10 6 15l-12 20c5 6 10 11 16 16l20-12c5 3 10 5 16 6l5 24c5 1 9 0 12 0c4 0 6 1 10 0l7-24c6-1 10-3 15-6l20 12c6-5 12-10 16-16l-13-20c3-4 6-9 7-15l23-6c1-4 1-8 1-11c0-4 0-7-1-11l-23-6c-1-6-4-11-7-15l13-21c-5-6-10-11-16-15l-20 12c-5-3-9-5-15-7l-7-23c-5-1-7 0-10 0c-4 0-8-1-12 0l-5 23c-5 2-12 3-16 7l-20-12c-6 5-12 9-16 15l12 21c-3 5-4 9-6 15l-23 6c-1 4-1 7-1 11z m87 32c-18 0-33-14-33-32c0-18 15-32 33-32c18 0 32 14 32 32c0 18-14 32-32 32z"/>
<glyph unicode="&#53;" d="M11-4c-6 0-11 5-11 11c0 151 1 227 1 228l79 242c2 5 8 10 14 10l98 0l0-64l-65 0l-65-192l87 0l43-107l128 0l43 107l87 0l-65 192l-65 0l0 64l98 0c7 0 12-4 14-9l79-243l1-228c0-6-5-11-11-11z m277 555c6 0 11-5 11-11l0-138l60 0c3 0 5-5 3-7l-102-122c-1-1-2-2-3-2c-2 0-3 1-4 3l-102 121c-2 2-1 7 2 7l60 0l0 138c0 6 5 11 11 11z"/>
<glyph unicode="&#54;" d="M26-4c-6 0-10 4-10 10l0 210c0 2 1 3 1 4l74 227c2 5 7 10 13 10l56 0l-44-61l20 0l-62-180l82 0l40-100l120 0l40 100l82 0l-62 180l20 0l-45 61l57 0c7 0 11-4 13-9l74-228l1-4l0-210c0-6-4-10-10-10z m200 261c-6 0-10-2-10 4l0 135l-57 0c-3 0-4 2-2 4l96 114c1 1 2 1 4 1c1 0 2-1 3-2l95-113c2-2 1-4-2-4l-57 0l0-135c0-6-4-4-10-4z"/>
<glyph unicode="&#81;" d="M8 189c-31 132 35 233 112 281c49 30 108 48 184 33c33-6 65-18 93-37l31 43c3 5 8 4 10-1l41-133c2-6-3-10-8-10l-138-3c-6 0-8 4-5 9l31 43c-53 34-122 41-185 12c-54-25-98-78-108-146c-4-31-2-61 8-89l-4-1z m24-59c-2 6 3 10 8 10l139 2c6 0 7-3 4-8l-31-43c35-23 83-37 139-27c51 9 94 39 120 76c21 29 37 68 36 115c0 20-3 39-9 58l65 1c22-83-3-160-40-212c-35-49-93-89-161-102c-75-14-141 8-187 39l-32-43c-3-5-7-5-9 1z"/>
<glyph unicode="&#55;" d="M145 53c-65 26-118 82-138 154c-11 41-11 81 0 122l53-30c-11-59 10-109 37-142c16-19 35-34 57-45c3 19 6 34 7 41c2 8 5 9 11 3l83-83c6-7 7-10-1-15c0 0-94-53-105-58c-7-4-12-4-11 6z m-104 303c2 71 3 110 4 118c1 9 5 10 12 4l32-26c25 19 52 33 81 41c98 25 176-11 225-59l-53-31c-37 31-92 50-157 34c-17-5-35-12-50-23c18-15 30-24 34-28c5-4 7-9-1-12c-2-1-109-27-112-28c-13-4-15-3-15 10z m249-312l0 60c66 24 121 90 115 177c-23-10-37-16-42-18c-7-3-9 1-7 8l28 119c1 5 4 7 9 4l109-61c5-3 6-9 1-11l-42-17c9-60-5-112-27-151c-29-51-79-92-141-109c-1 0-2-1-3-1z"/>
<glyph unicode="&#56;" d="M0 449c0 5 4 8 9 8l152 0c5 0 12-4 14-6l229-229c2-2 3-3 3-5c0-2-1-5-3-7l-157-157c-2-2-4-2-6-2c-2 0-4 0-6 2l-229 229c-2 2-6 10-6 15z m86-43c-18 0-35-16-35-34c0-18 17-34 35-34c18 0 33 16 33 34c0 18-15 34-33 34z m117 51l52 0c15 0 20-4 28-12l217-216c6-6 6-17 0-24l-152-152c-4-3-9-2-12 1l-27 27l123 124c9 9 9 15 0 24z"/>
<glyph unicode="&#57;" d="M32 231c0 89 50 157 109 192c13 9 30 13 30-7l0-38c0-14-7-17-15-22c-33-26-60-69-60-125c0-48 22-88 47-113c25-25 65-47 113-47c48 0 88 22 113 47c25 25 47 65 47 113c0 55-28 98-60 124c-8 5-15 10-15 23l0 39c0 18 17 13 28 7c60-35 111-103 111-193c0-67-31-123-66-158c-35-35-91-66-158-66c-67 0-123 31-158 66c-35 35-66 91-66 158z m203 64c-12 0-22 9-22 21l0 171c0 12 10 21 22 21l42 0c12 0 22-9 22-21l0-171c0-12-10-21-22-21z"/>
<glyph unicode="&#33;" d="M-21-4l0 86l405 0l128 128l0-86l-21-21l0 21l-22-21l0-21l-42-43l0 21l-22-21l0-21l-21-22l-85 0l0 22l-64 0l0-22l-86 0l0 22l-64 0l0-22z m42 107l0 64l150 0l0-64z m0 85l0 86l150 0l0-86z m0 107l0 85l150 0l0-85z m0 107l0 27c0 13 2 17 9 24l34 34l149 0c-15-16-26-26-33-33c-8-8-9-10-9-24l0-28z m64 106l36 36c4 4 7 7 16 7l140 0l-42-43z m128-405l0 64l150 0l42 43l0-64l-42-43z m0 85l0 86l150 0l42 42l0-85l-42-43z m0 107l0 85l150 0l42 43l0-85l-42-43z m0 107l0 28c0 13 3 17 10 24l33 33l138 0c8 0 11-3 11-11l0-32l-42-42z m214 85c0 15-7 21-22 21l-128 0l43 43l128 0c16 0 21-5 21-21l0-22l-42-42z m0-320l0 64l42 43l0-64z m0 85l0 86l42 42l0-85z m0 107l0 85l42 43l0-85z"/>
<glyph unicode="&#34;" d="M511 456c0-26-23-49-49-49c-4 0-7 1-12 2l-17-25l0-16l58 0l0-19l-58 0l0-58l58 0l0-19l-58 0l0-58l58 0l0-20l-58 0l0-58l58 0l0-19l-58 0l0-59l58 0l0-39l-485 0l0 486l39 0l0-58l58 0l0 58l20 0l0-58l58 0l0 58l19 0l0-58l58 0l0 58l20 0l0-58l58 0l0 58l19 0l0-58l59 0l0 58l19 0l0-10c9 6 18 9 29 9c26 0 49-22 49-48z m-466-375l31 36l-31 0z m0 55l48 0l10 11l0 47l-58 0z m0 78l58 0l0 58l-58 0z m0 77l58 0l0 58l-58 0z m0 77l58 0l0 59l-58 0z m19-310l39 0l0 46z m59 0l58 0l0 59l-58 0z m7 120c-3 5-6 11-7 16l0-24z m-7 36c5 21 23 38 48 38c3 0 6 0 10-1l0 21l-58 0z m0 77l58 0l0 58l-58 0z m0 77l58 0l0 59l-58 0z m9-232l49 0l0 20c-4-1-7-1-10-1c-6 0-13 1-19 4z m68-78l58 0l0 59l-58 0z m0 78l58 0l0 58l-39 0c-3-13-9-22-19-29z m0 106c3-2 5-3 7-6l83 36l-12 0l0-5l-20-10l0 15l-58 0z m0 49l58 0l0 58l-58 0z m0 77l58 0l0 59l-58 0z m31-154l27 0l0 12z m47-156l58 0l0 59l-58 0z m0 78l58 0l0 58l-58 0z m58 78l0 20c-10 2-19 6-26 14l-32-13l0-21z m-38 77c5 19 19 33 38 37l0 21l-58 0l0-58z m-20 77l58 0l0 59l-58 0z m68-39z m9-271l59 0l0 59l-59 0z m0 78l59 0l0 58l-59 0z m0 98l0-20l59 0l0 58l-20 0c-4-19-20-34-39-38z m0 94c1 0 5-1 6-1l14 22l-20 0z m0 40l33 0l26 39l0 20l-59 0z m29-58c5-5 8-13 9-19l21 0l0 58l-4 0z"/>
<glyph unicode="&#35;" d="M479 337l0-273l37 0l0-37l-507 0l0 37l38 0l0 85c0 5 5 10 10 10l75 0c5 0 9-5 9-10l0-85l19 0l0 198c0 5 4 9 9 9l75 0c5 0 10-4 10-9l0-198l19 0l0 405c0 5 4 8 9 8l75 0c5 0 10-3 10-8l0-405l18 0l0 273c0 5 5 9 10 9l75 0c5 0 9-4 9-9z"/>
<glyph unicode="&#36;" d="M26 476c-2 5 2 10 7 11l117 16c6 1 13 2 19 2c6 0 13-1 19-2l116-16c5-1 9-6 7-11l-53-214c-1-5-7-10-12-10l-29 0l0-213l-19-19l0 194l-7 38l-6 0l-6-38l0-20l-20 0l0-19l20 0l0-19l-20 0l0-20l20 0l0-19l-20 0l0-20l20 0l0-20l-20 0l0-19l20 0l0-19l-20 0l0-20l20 0l0-18l-1-1l-21 0l-36 39l0 213l-30 0c-5 0-10 5-11 10z m143-11c-21 0-38-17-38-38c0-21 17-38 38-38c21 0 37 17 37 38c0 21-16 38-37 38z m87-267l0 23c20 1 31 17 36 34l49 208l58-165c2-6-1-12-5-14l-25-17l118-180l-9-53l-17-12l-54 11l-118 180l-21-15c-4-3-8-3-12 0z"/>
<glyph unicode="&#37;" d="M2 139l0 26c0 15 10 17 20 23c20 12 42 26 67 34l0 38c-11 3-14 9-14 23l0 26c0 27 16 45 44 45c28 0 43-18 43-45l0-26c0-7 0-13-3-16c-3-3-7-6-12-7l0-38c8-3 18-6 28-11c-20-10-49-26-82-44c-13-8-21-18-24-31l-64 0c-1 0-3 2-3 3z m255 259c40 0 65-25 65-65l0-44c0-14-4-24-14-32l0-56c18-8 52-25 102-54c11-6 15-12 15-28l0-36c0-2-2-5-4-5l-328 0c-2 0-4 3-4 5l0 36c0 16 4 22 15 28c46 27 81 44 102 54l0 55c-10 8-15 19-15 33l0 44c0 40 25 65 66 65z m182-115c0-14-3-20-14-23l0-38c25-8 47-22 67-34c11-6 20-8 20-23l0-26c0-1-1-3-2-3l-65 0c-3 13-11 23-24 31l-6 2c-31 18-56 32-76 42c11 5 20 9 27 11l0 38c-11 3-14 9-14 23l0 26c0 27 15 45 43 45c28 0 44-18 44-45z"/>
<glyph unicode="&#38;" d="M75-4c-6 0-11 5-11 11l0 491c0 6 5 10 11 10l245 0l0-138c0-6 5-11 11-11l138 0l0-352c0-6-4-11-10-11z m277 384c-6 0-11 5-11 11l0 117l128-128z"/>
<glyph unicode="&#39;" d="M65 3c-6 0-9 5-9 11l0 371l400 0l0-371c0-6-3-11-9-11z m391 481l0-80l-400 0l0 80c0 11 9 21 20 21c11 0 20-10 20-21l20 0c0 11 9 21 20 21c11 0 20-10 20-21l20 0c0 11 9 21 20 21c11 0 20-10 20-21l20 0c0 11 9 21 20 21c11 0 20-10 20-21l20 0c0 11 9 21 20 21c11 0 20-10 20-21l20 0c0 11 9 21 20 21c11 0 20-10 20-21l20 0c0 11 9 21 20 21c11 0 20-10 20-21z m-340-420l100 0l0 20l-100 0z m0 40l280 0l0 20l-280 0z m0 40l280 0l0 20l-280 0z m0 40l280 0l0 20l-280 0z m0 80l200 0l0 20l-200 0z m20-40l260 0l0 20l-260 0z m0 80l260 0l0 20l-260 0z"/>
<glyph unicode="&#40;" d="M11 18c-6 0-11 4-11 10l0 43c0 6 5 11 11 11l42 0c6 0 11-5 11-11l0-43c0-6-5-10-11-10z m0 128c-6 0-11 4-11 10l0 43c0 6 5 11 11 11l42 0c6 0 11-5 11-11l0-43c0-6-5-10-11-10z m0 128c-6 0-11 4-11 10l0 43c0 6 5 11 11 11l42 0c6 0 11-5 11-11l0-43c0-6-5-10-11-10z m0 128c-6 0-11 4-11 10l0 43c0 6 5 11 11 11l42 0c6 0 11-5 11-11l0-43c0-6-5-10-11-10z m106-384c-6 0-10 4-10 10l0 43c0 6 4 11 10 11l384 0c6 0 11-5 11-11l0-43c0-6-5-10-11-10z m0 128c-6 0-10 4-10 10l0 43c0 6 4 11 10 11l384 0c6 0 11-5 11-11l0-43c0-6-5-10-11-10z m0 128c-6 0-10 4-10 10l0 43c0 6 4 11 10 11l384 0c6 0 11-5 11-11l0-43c0-6-5-10-11-10z m0 128c-6 0-10 4-10 10l0 43c0 6 4 11 10 11l384 0c6 0 11-5 11-11l0-43c0-6-5-10-11-10z"/>
<glyph unicode="&#41;" d="M20 188c-26 0-23 10-6 21l440 273c20 13 37 2 37-21l0-384c0-22-16-33-37-20l-152 90l-106-132c-13-16-25-16-25 10l0 163z m193-89l253 362l-253-277z"/>
<glyph unicode="&#42;" d="M500 103c6 0 12-5 12-11l0-96l-512 0l0 96c0 6 5 11 11 11z m-457 298c0 3 1 6 3 8l75 75c2 2 5 3 8 3c3 0 5-1 7-3l16-16l-90-90l-16 15c-2 2-3 5-3 8z m40-44l90 90l22-21l-91-91z m301-201c0-6-5-10-11-10l-224 0c-6 0-6 7-2 10l68 68l-90 90l91 91l89-90l68 68c4 4 11 4 11-3z m43-117l42 0l0 21l-42 0z"/>
<glyph unicode="&#43;" d="M43 39c-23 0-43 20-43 43l0 298c0 23 20 43 43 43l85 0l0-21c0-27 16-43 43-43l170 0c27 0 43 16 43 43l0 21l85 0c23 0 43-20 43-43l0-298c0-23-20-43-43-43z m42 256c-11 0-21-8-21-19l0-154c0-11 10-19 21-19l150 0c11 0 21 8 21 19l0 154c0 11-10 19-21 19z m101-73c0-7-8-16-13-18l0-12c2-1 45-16 47-17c4-2 5-5 5-11l0-13c0-2 0-3-2-3l-126 0c-2 0-3 1-3 3l0 13c0 11 6 11 16 15c9 3 29 10 37 13l0 12c-5 1-13 11-13 18l0 26c0 15 10 26 26 26c16 0 26-11 26-26z m-15 158c-12 0-22 10-22 22l0 21c0 12 10 21 22 21l42 0l0 20c0 12 10 23 22 23l42 0c12 0 22-11 22-23l0-20l42 0c12 0 22-9 22-21l0-21c0-12-10-22-22-22z m128-192l128 0l0 22l-128 0z m0 43l149 0l0 21l-149 0z m0 43l64 0l0 21l-64 0z m85 0l64 0l0 21l-64 0z"/>
<glyph unicode="&#44;" d="M87 167l91 0c0-39 19-64 57-75l0 128l-11 3c-68 19-128 46-128 133c0 55 26 90 59 112c22 15 48 25 80 28l0 34l42 0l0-35c91-10 146-56 146-157l-91 0c-2 31-8 54-29 66c-7 4-15 7-26 9l0-112c11-1 17-2 24-5c19-6 42-13 52-17c57-24 86-64 86-122c0-45-17-77-41-101c-27-27-70-43-121-47l0-34l-42 0l0 35c-43 5-81 25-106 50c-24 24-42 61-42 107z m148 248c-26-5-48-21-48-51c0-12 4-22 10-28c6-6 19-13 38-19z m42-326c40 4 65 16 65 57c0 16-6 28-16 37c-10 9-27 16-49 22z"/>
<glyph unicode="&#45;" d="M31-6l150 151l150 0l150-151z m0 38l0 263l131-132z m0 263l225 226l225-226l-37 0l-132-132l-112 0l-132 132z m133 25c-2-2-2-6 1-6l53 0l0-86c0-5 4-8 9-8l58 0c5 0 9 3 9 8l0 86l53 0c3 0 3 4 1 6l-89 107c-2 2-5 4-7 1z m186-157l131 132l0-263z"/>
<glyph unicode="&#46;" d="M4 40l124 124l88-88l88 88l124-124z m0 36l0 212l106-106z m0 247l305 0c7-31 23-54 49-70l-142-142z m318-141l60 60c14-5 29-7 46-7l0-159z m19 176c0 36 20 61 44 75c13 7 27 12 43 12c35 0 62-20 76-43c7-13 12-28 12-44c0-35-21-61-44-75c-13-7-28-13-44-13c-35 0-62 21-76 44c-7 13-11 28-11 44z m22 0c0-12 3-24 10-35l90 90c-11 7-23 10-35 10c-36 0-65-29-65-65z m65-66c36 0 66 30 66 66c0 12-3 24-10 35l-90-91c11-7 22-10 34-10z"/>
<glyph unicode="&#47;" d="M5 64l0 226l112-113z m1-37l131 132l94-95l93 95l133-132z m355 273c0-19 13-35 26-42l-156-156l-225 226l355 0z m-18-123l77 77c17 4 31 18 35 35l1 1l0-226z m66 113c-5 0-10 5-10 10l0 159l103 0c5 0 10-5 10-10l0-56c0-6-5-10-9-12l-85-35l0-46c0-5-4-10-9-10z"/>
<glyph unicode="&#58;" d="M266 406l0-110l110 0z m-123-206l0-65l18 0c21 0 30 19 30 36c0 22-6 29-24 29z m86 59l0 183l-174 0c-3 0-5 0-7-2c-1-2-2-4-2-7l0-421c0-3 1-5 2-7c2-2 4-2 7-2l312 0c2 0 4 0 6 2c2 2 3 4 3 7l0 247z m24-86c0-48-39-84-90-84l-19 0l0-61l-60 0l0 218l87 0c60 0 82-15 82-73z m130 170l76 0l0-233c0 0 2-8-11-8l-34 0l0 207z m-62 65l0 107l-164 0c0 0-8-1-8-7l0-29l105 0z m139-31l-104 0l0 104z"/>
<glyph unicode="&#59;" d="M299 468l0-128l128 0z m-143-240l0-75l21 0c24 0 34 22 34 41c0 26-7 34-27 34z m100 69l0 213l-203 0c-3 0-5-1-7-3c-2-2-3-4-3-7l0-491c0-3 1-6 3-8c2-2 4-3 7-3l363 0c3 0 6 1 8 3c2 2 3 5 3 8l0 288z m55-140l42 0l0-53l56 0l0-38l-56 0l0-52l-42 0l0 52l-56 0l0 38l56 0z m-27 40c0-56-46-98-105-98l-22 0l0-71l-70 0l0 254l101 0c70 0 96-17 96-85z"/>
<glyph unicode="&#60;" d="M299 468l0-128l128 0z m-143-240l0-75l21 0c24 0 34 22 34 41c0 26-7 34-27 34z m100 69l0 213l-203 0c-3 0-5-1-7-3c-2-2-3-4-3-7l0-491c0-3 1-6 3-8c2-2 4-3 7-3l363 0c3 0 6 1 8 3c2 2 3 5 3 8l0 288z m28-100c0-56-46-98-105-98l-22 0l0-71l-70 0l0 254l101 0c70 0 96-17 96-85z"/>
</font>
</defs>
</svg>
